<?xml version="1.0" standalone="no"?>
<!DOCTYPE svg PUBLIC "-//W3C//DTD SVG 1.1//EN" "http://www.w3.org/Graphics/SVG/1.1/DTD/svg11.dtd" >
<svg>
<metadata>
Created by FontForge 20090622 at Sun Dec  6 12:36:53 2015
 By deploy user
Digitised data (c) 2004 Monotype Imaging. All Rights Reserved. Neo Sans is designed by Sebastian Lester.
</metadata>
<defs>
<font id="NeoSansStd-Medium" horiz-adv-x="630" >
  <font-face 
    font-family="Neo Sans Std Medium"
    font-weight="500"
    font-stretch="normal"
    units-per-em="1000"
    panose-1="2 11 6 4 3 5 4 4 2 4"
    ascent="765"
    descent="-235"
    x-height="564"
    cap-height="743"
    bbox="-73 -216 1475 1000"
    underline-thickness="71"
    underline-position="-8"
    unicode-range="U+0020-U+FB04"
  />
<missing-glyph horiz-adv-x="500" 
d="M12 0v665h475v-665h-475zM88 618l162 -243l161 243h-323zM60 575v-484l40 61l80 120l41 61zM440 575l-162 -242l162 -243v485zM411 48l-161 242l-162 -242h323z" />
    <glyph glyph-name="f_f" unicode="ff" horiz-adv-x="728" 
d="M708 690q0 -17 -15 -17h-45q-36 0 -47.5 -11.5t-11.5 -48.5v-49h96q8 0 14 -6t6 -14v-60q0 -8 -6 -13.5t-14 -5.5h-96v-444q0 -8 -6 -14.5t-14 -6.5h-91q-8 0 -14.5 6.5t-6.5 14.5v444h-201v-444q0 -8 -6 -14.5t-14 -6.5h-91q-8 0 -14.5 6.5t-6.5 14.5v444l-89 14
q-20 4 -20 19v46q0 8 6 14t14 6h89v49q0 91 44 125.5t129 34.5q22 0 60 -8q18 -5 18 -16v-59q0 -17 -15 -17h-45q-36 0 -47.5 -11.5t-11.5 -48.5v-49h201v49q0 91 44 125.5t129 34.5q22 0 60 -8q18 -5 18 -16v-59z" />
    <glyph glyph-name="f_i" unicode="fi" horiz-adv-x="657" 
d="M375 690q0 -17 -15 -17h-45q-36 0 -47.5 -11.5t-11.5 -48.5v-49h313q8 0 14 -6t6 -14v-523q0 -8 -6 -14.5t-14 -6.5h-92q-8 0 -14 6.5t-6 14.5v444h-201v-444q0 -8 -6 -14.5t-14 -6.5h-91q-8 0 -14.5 6.5t-6.5 14.5v444l-89 14q-20 4 -20 19v46q0 8 6 14t14 6h89v49
q0 91 44 125.5t129 34.5q22 0 60 -8q18 -5 18 -16v-59zM592 659q0 -8 -6 -14t-14 -6h-97q-8 0 -14.5 6t-6.5 14v88q0 8 6.5 14t14.5 6h97q8 0 14 -6t6 -14v-88z" />
    <glyph glyph-name="f_l" unicode="fl" horiz-adv-x="659" 
d="M589 21q0 -8 -5.5 -14.5t-13.5 -6.5h-93q-8 0 -14 6.5t-6 14.5v652h-112q-58 0 -73.5 -11t-15.5 -49v-49h96q8 0 14 -6t6 -14v-60q0 -8 -6 -13.5t-14 -5.5h-96v-444q0 -8 -6 -14.5t-14 -6.5h-91q-8 0 -14.5 6.5t-6.5 14.5v444l-89 14q-20 4 -20 19v46q0 8 6 14t14 6h89
v49q0 95 43.5 127.5t159.5 32.5q27 0 87 -3.5t72 -8.5h84q8 0 13.5 -6t5.5 -14v-720z" />
    <glyph glyph-name="f_f_i" unicode="ffi" horiz-adv-x="1001" 
d="M933 21q0 -8 -6 -14.5t-14 -6.5h-92q-8 0 -14 6.5t-6 14.5v444h-207v-444q0 -8 -6 -14.5t-14 -6.5h-91q-8 0 -14.5 6.5t-6.5 14.5v444h-206v-444q0 -8 -6 -14.5t-14 -6.5h-91q-8 0 -14.5 6.5t-6.5 14.5v444l-89 14q-20 4 -20 19v46q0 8 6 14t14 6h89v49q0 91 44 125.5
t129 34.5q22 0 60 -8q18 -5 18 -16v-59q0 -17 -15 -17h-45q-36 0 -47.5 -11.5t-11.5 -48.5v-49h206v49q0 91 44 125.5t129 34.5q22 0 60 -8q18 -5 18 -16v-59q0 -17 -15 -17h-45q-36 0 -47.5 -11.5t-11.5 -48.5v-49h319q8 0 14 -6t6 -14v-523zM936 659q0 -8 -6 -14t-14 -6
h-97q-8 0 -14.5 6t-6.5 14v88q0 8 6.5 14t14.5 6h97q8 0 14 -6t6 -14v-88z" />
    <glyph glyph-name="f_f_l" unicode="ffl" horiz-adv-x="997" 
d="M462 564v49q0 95 43.5 127.5t159.5 32.5q27 0 87 -3.5t72 -8.5h84q8 0 13.5 -6t5.5 -14v-720q0 -8 -5.5 -14.5t-13.5 -6.5h-93q-8 0 -14 6.5t-6 14.5v652h-112q-58 0 -73.5 -11t-15.5 -49v-49h96q8 0 14 -6t6 -14v-60q0 -8 -6 -13.5t-14 -5.5h-96v-444q0 -8 -6 -14.5
t-14 -6.5h-91q-8 0 -14.5 6.5t-6.5 14.5v444h-206v-444q0 -8 -6 -14.5t-14 -6.5h-91q-8 0 -14.5 6.5t-6.5 14.5v444l-89 14q-20 4 -20 19v46q0 8 6 14t14 6h89v49q0 91 44 125.5t129 34.5q22 0 60 -8q18 -5 18 -16v-59q0 -17 -15 -17h-45q-36 0 -47.5 -11.5t-11.5 -48.5v-49
h206z" />
    <glyph glyph-name="f_b" unicode="fb" horiz-adv-x="972" 
d="M795 243v77q0 68 -23.5 105.5t-83.5 37.5q-47 0 -96 -7v-349q33 -7 96 -7q60 0 83.5 37.5t23.5 105.5zM592 741v-177q52 7 96 7q118 0 178.5 -66t60.5 -185v-77q0 -119 -60.5 -185t-178.5 -66q-100 0 -201 26q-17 4 -22 9.5t-5 17.5v628h-115q-58 0 -73.5 -11t-15.5 -49
v-49h96q8 0 14 -6t6 -14v-60q0 -8 -6 -13.5t-14 -5.5h-96v-444q0 -8 -6 -14.5t-14 -6.5h-91q-8 0 -14.5 6.5t-6.5 14.5v444l-89 14q-20 4 -20 19v46q0 8 6 14t14 6h89v49q0 95 43.5 127.5t159.5 32.5q27 0 88.5 -3.5t73.5 -8.5h84q8 0 13.5 -6t5.5 -14z" />
    <glyph glyph-name="f_f_b" unicode="ffb" horiz-adv-x="1310" 
d="M1134 243v77q0 68 -23.5 105.5t-83.5 37.5q-47 0 -96 -7v-349q33 -7 96 -7q60 0 83.5 37.5t23.5 105.5zM462 465h-206v-444q0 -8 -6 -14.5t-14 -6.5h-91q-8 0 -14.5 6.5t-6.5 14.5v444l-89 14q-20 4 -20 19v46q0 8 6 14t14 6h89v49q0 90 42.5 125t120.5 35q32 0 70 -8
q11 -3 14.5 -6t3.5 -10v-59q0 -17 -15 -17h-45q-36 0 -47.5 -11.5t-11.5 -48.5v-49h207v49q0 95 43.5 127.5t159.5 32.5q27 0 88.5 -3.5t73.5 -8.5h84q8 0 13.5 -6t5.5 -14v-177q52 7 96 7q118 0 178.5 -66t60.5 -185v-77q0 -119 -60.5 -185t-178.5 -66q-100 0 -201 26
q-17 4 -22 9.5t-5 17.5v628h-115q-58 0 -73.5 -11t-15.5 -49v-49h96q8 0 14 -6t6 -14v-60q0 -8 -6 -13.5t-14 -5.5h-96v-444q0 -8 -6 -14.5t-14 -6.5h-91q-8 0 -14.5 6.5t-7.5 14.5v444z" />
    <glyph glyph-name="f_f_h" unicode="ffh" horiz-adv-x="1325" 
d="M462 465h-206v-444q0 -8 -6 -14.5t-14 -6.5h-91q-8 0 -14.5 6.5t-6.5 14.5v444l-89 14q-20 4 -20 19v46q0 8 6 14t14 6h89v49q0 90 42.5 125t120.5 35q32 0 70 -8q11 -3 14.5 -6t3.5 -10v-59q0 -17 -15 -17h-45q-36 0 -47.5 -11.5t-11.5 -48.5v-49h207v49
q0 95 43.5 127.5t159.5 32.5q27 0 88.5 -3.5t73.5 -8.5h83q8 0 13.5 -6t5.5 -14v-207q61 37 151 37q179 0 179 -221v-329q0 -8 -6 -14.5t-14 -6.5h-92q-8 0 -14 6.5t-6 14.5v329q0 66 -16 87.5t-66 21.5q-51 0 -116 -34v-404q0 -8 -6 -14.5t-14 -6.5h-93q-8 0 -13.5 6.5
t-5.5 14.5v652h-114q-58 0 -74 -11t-16 -49v-49h96q8 0 14 -6t6 -14v-60q0 -8 -6 -13.5t-14 -5.5h-96v-444q0 -8 -6 -14.5t-14 -6.5h-91q-8 0 -14.5 6.5t-6.5 14.5v444z" />
    <glyph glyph-name="f_f_k" unicode="ffk" horiz-adv-x="1282" 
d="M462 465h-206v-444q0 -8 -6 -14.5t-14 -6.5h-91q-8 0 -14.5 6.5t-6.5 14.5v444l-89 14q-20 4 -20 19v46q0 8 6 14t14 6h89v49q0 91 44 125.5t129 34.5q22 0 60 -8q18 -5 18 -16v-59q0 -17 -15 -17h-45q-36 0 -47.5 -11.5t-11.5 -48.5v-49h207v49q0 95 43.5 127.5
t159.5 32.5q27 0 88.5 -3.5t73.5 -8.5h83q8 0 13.5 -6t5.5 -14v-417l171 228q9 12 23 12h112q15 0 15 -11q0 -5 -4 -10l-201 -247l203 -276q3 -4 3 -8q0 -12 -14 -12h-122q-16 0 -29 20l-157 228v-227q0 -8 -6 -14.5t-14 -6.5h-92q-8 0 -14 6.5t-6 14.5v652h-114
q-58 0 -74 -11t-16 -49v-49h96q8 0 14 -6t6 -14v-60q0 -8 -6 -13.5t-14 -5.5h-96v-444q0 -8 -6 -14.5t-14 -6.5h-91q-8 0 -14.5 6.5t-6.5 14.5v444z" />
    <glyph glyph-name="f_h" unicode="fh" horiz-adv-x="987" 
d="M592 741v-207q61 37 151 37q179 0 179 -221v-329q0 -8 -6 -14.5t-14 -6.5h-92q-8 0 -14 6.5t-6 14.5v329q0 66 -16 87.5t-66 21.5q-51 0 -116 -34v-404q0 -8 -6 -14.5t-14 -6.5h-93q-8 0 -13.5 6.5t-5.5 14.5v652h-114q-58 0 -74 -11t-16 -49v-49h96q8 0 14 -6t6 -14v-60
q0 -8 -6 -13.5t-14 -5.5h-96v-444q0 -8 -6 -14.5t-14 -6.5h-91q-8 0 -14.5 6.5t-6.5 14.5v444l-89 14q-20 4 -20 19v46q0 8 6 14t14 6h90v49q0 95 43.5 127.5t159.5 32.5q27 0 88.5 -3.5t73.5 -8.5h83q8 0 13.5 -6t5.5 -14z" />
    <glyph glyph-name="f_j" unicode="fj" horiz-adv-x="663" 
d="M595 -42q0 -87 -37 -122.5t-111 -35.5q-30 0 -66 6q-19 3 -19 18v65q0 16 21 16h45q23 0 29 10.5t6 42.5v507h-207v-444q0 -8 -6 -14.5t-14 -6.5h-91q-8 0 -14.5 6.5t-6.5 14.5v444l-89 14q-20 4 -20 19v46q0 8 6 14t14 6h89v49q0 91 44 125.5t129 34.5q22 0 60 -8
q18 -5 18 -16v-59q0 -17 -15 -17h-45q-36 0 -47.5 -11.5t-11.5 -48.5v-49h319q8 0 14 -6t6 -14v-586zM598 659q0 -8 -6.5 -14t-14.5 -6h-96q-8 0 -14 6t-6 14v88q0 8 6 14t14 6h96q8 0 14.5 -6t6.5 -14v-88z" />
    <glyph glyph-name="f_f_j" unicode="ffj" horiz-adv-x="1001" 
d="M933 -42q0 -87 -37 -122.5t-111 -35.5q-30 0 -66 6q-19 3 -19 18v65q0 16 21 16h45q23 0 29 10.5t6 42.5v507h-207v-444q0 -8 -6 -14.5t-14 -6.5h-91q-8 0 -14.5 6.5t-6.5 14.5v444h-206v-444q0 -8 -6 -14.5t-14 -6.5h-91q-8 0 -14.5 6.5t-6.5 14.5v444l-89 14
q-20 4 -20 19v46q0 8 6 14t14 6h89v49q0 91 44 125.5t129 34.5q22 0 60 -8q18 -5 18 -16v-59q0 -17 -15 -17h-45q-36 0 -47.5 -11.5t-11.5 -48.5v-49h206v49q0 91 44 125.5t129 34.5q22 0 60 -8q18 -5 18 -16v-59q0 -17 -15 -17h-45q-36 0 -47.5 -11.5t-11.5 -48.5v-49h319
q8 0 14 -6t6 -14v-586zM936 659q0 -8 -6.5 -14t-14.5 -6h-96q-8 0 -14 6t-6 14v88q0 8 6 14t14 6h96q8 0 14.5 -6t6.5 -14v-88z" />
    <glyph glyph-name="f_k" unicode="fk" horiz-adv-x="944" 
d="M592 741v-417l171 228q9 12 23 12h112q15 0 15 -11q0 -5 -4 -10l-201 -247l203 -276q3 -5 3 -8q0 -12 -14 -12h-122q-16 0 -29 20l-157 228v-227q0 -8 -6 -14.5t-14 -6.5h-92q-8 0 -14 6.5t-6 14.5v652h-114q-58 0 -74 -11t-16 -49v-49h96q8 0 14 -6t6 -14v-60
q0 -8 -6 -13.5t-14 -5.5h-96v-444q0 -8 -6 -14.5t-14 -6.5h-91q-8 0 -14.5 6.5t-6.5 14.5v444l-89 14q-20 4 -20 19v46q0 8 6 14t14 6h90v49q0 95 43.5 127.5t159.5 32.5q27 0 88.5 -3.5t73.5 -8.5h83q8 0 13.5 -6t5.5 -14z" />
    <glyph glyph-name=".notdef" horiz-adv-x="500" 
d="M12 0v665h475v-665h-475zM88 618l162 -243l161 243h-323zM60 575v-484l40 61l80 120l41 61zM440 575l-162 -242l162 -243v485zM411 48l-161 242l-162 -242h323z" />
    <glyph glyph-name=".null" horiz-adv-x="0" 
 />
    <glyph glyph-name="nonmarkingreturn" horiz-adv-x="333" 
 />
    <glyph glyph-name="space" unicode=" " horiz-adv-x="250" 
 />
    <glyph glyph-name="exclam" unicode="!" horiz-adv-x="256" 
d="M196 742l-15 -508q0 -8 -6 -14t-14 -6h-65q-8 0 -14.5 6t-6.5 14l-15 508q0 7 6.5 13t14.5 6h95q8 0 14 -5.5t6 -13.5zM192 17q0 -8 -5.5 -14t-13.5 -6h-90q-8 0 -13.5 6t-5.5 14v113q0 19 19 19h90q19 0 19 -19v-113z" />
    <glyph glyph-name="quotedbl" unicode="&#x22;" horiz-adv-x="420" 
d="M407 750q0 -2 -2 -8l-68 -207q-5 -19 -19 -19h-80q-9 0 -9 10q0 6 1 9l51 207q4 19 20 19h94q12 0 12 -11zM207 750q0 -2 -2 -8l-68 -207q-5 -19 -19 -19h-80q-9 0 -9 10q0 6 1 9l51 207q4 19 20 19h94q12 0 12 -11z" />
    <glyph glyph-name="numbersign" unicode="#" horiz-adv-x="684" 
d="M634 526v-2l-5 -45q-2 -20 -20 -20q-1 0 -36 -0.5t-53 -0.5l-16 -177h85q8 0 14 -5.5t6 -12.5v-2l-5 -46q-2 -20 -20 -20h-88l-15 -176q-2 -19 -18 -19h-79q-16 0 -16 17v2l15 176h-130l-15 -176q-2 -19 -18 -19h-80q-7 0 -11.5 5t-4.5 12v2l15 176h-83q-8 0 -14 5.5
t-6 12.5v2l5 46q2 20 20 20h86l16 177l-81 1q-8 0 -14 5.5t-6 12.5v2l5 45q2 20 20 20h83l16 180q1 8 6.5 13.5t12.5 5.5h80q15 0 15 -17v-2l-16 -180h130l16 180q2 19 19 19h79q15 0 15 -17v-2l-16 -180h87q8 0 14 -5.5t6 -12.5zM407 458h-130l-16 -177h130z" />
    <glyph glyph-name="dollar" unicode="$" 
d="M555 201q0 -72 -43 -128t-136 -74v-91q0 -8 -6 -14t-14 -6h-91q-8 0 -14 6t-6 14v85q-62 2 -130 17q-19 4 -19 20v72q0 8 5.5 13.5t13.5 5.5h2q80 -10 177 -10q64 0 90 22t26 68q0 29 -17.5 48.5t-67.5 49.5l-132 79q-66 39 -92 83t-26 100q0 157 170 184v84q0 8 6 14
t14 6h91q8 0 14 -6t6 -14v-80q93 -5 141 -16q18 -4 18 -19v-74q0 -18 -17 -18h-2q-110 10 -197 10q-105 0 -105 -71q0 -25 17 -43.5t65 -45.5l120 -67q78 -43 108.5 -91.5t30.5 -112.5z" />
    <glyph glyph-name="percent" unicode="%" horiz-adv-x="811" 
d="M772 162q0 -168 -142 -168q-69 0 -106 42t-37 126v82q0 84 37 126t106 42q142 0 142 -168v-82zM674 735q0 -5 -4 -12l-417 -705q-12 -21 -23 -21h-84q-10 0 -10 9q0 7 4 12l417 705q12 20 24 20h84q9 0 9 -8zM325 499q0 -168 -142 -168q-69 0 -106 42t-37 126v82
q0 167 143 167q142 0 142 -167v-82zM687 162v82q0 51 -14 72t-43 21t-43.5 -21t-14.5 -72v-82q0 -51 14.5 -72t43.5 -21t43 21t14 72zM240 499v82q0 51 -14 72t-43 21t-43.5 -21t-14.5 -72v-82q0 -94 58 -94q28 0 42.5 21.5t14.5 72.5z" />
    <glyph glyph-name="ampersand" unicode="&#x26;" horiz-adv-x="718" 
d="M687 11q0 -11 -11 -11h-112q-9 0 -17 8l-37 39q-79 -55 -190 -55q-117 0 -191 47.5t-74 144.5v10q0 60 33.5 103.5t103.5 86.5l-7 8q-59 67 -77 107t-18 78v9q0 76 58.5 120.5t169.5 44.5q98 0 156.5 -45t58.5 -120v-9q0 -34 -12 -64t-35 -54.5t-46 -42.5t-55 -38
l-24 -15l150 -160q26 59 26 143v12q0 20 17 20h73q18 0 18 -20v-12q0 -131 -60 -221l98 -104q4 -4 4 -10zM414 577v9q0 71 -96 71q-51 0 -80.5 -18.5t-29.5 -52.5v-9q0 -19 3 -32t19 -37.5t48 -56.5l9 -9l30 18q57 34 77 58t20 59zM441 120l-175 186q-43 -26 -58.5 -50.5
t-15.5 -61.5v-10q0 -46 35.5 -70t92.5 -24q72 0 121 30z" />
    <glyph glyph-name="quotesingle" unicode="'" horiz-adv-x="220" 
d="M207 750q0 -2 -2 -8l-68 -207q-5 -19 -19 -19h-80q-9 0 -9 10q0 6 1 9l51 207q4 19 20 19h94q12 0 12 -11z" />
    <glyph glyph-name="parenleft" unicode="(" horiz-adv-x="333" 
d="M303 -185q0 -10 -12 -10h-71q-24 0 -34 14q-66 93 -98.5 198.5t-32.5 246.5v19q0 141 32.5 247t98.5 199q10 14 34 14h71q12 0 12 -10q0 -8 -5 -16q-108 -200 -108 -434v-19q0 -233 108 -433q5 -8 5 -16z" />
    <glyph glyph-name="parenright" unicode=")" horiz-adv-x="333" 
d="M278 264q0 -141 -32.5 -246.5t-98.5 -198.5q-10 -14 -34 -14h-71q-12 0 -12 10q0 8 5 16q108 200 108 433v19q0 234 -108 434q-5 8 -5 16q0 10 12 10h71q24 0 34 -14q66 -93 98.5 -199t32.5 -247v-19z" />
    <glyph glyph-name="asterisk" unicode="*" horiz-adv-x="473" 
d="M435 583q0 -11 -15 -16l-119 -36l74 -101q5 -7 5 -14q0 -6 -6 -11l-41 -30q-5 -3 -9 -3q-8 0 -15 10l-72 102l-72 -102q-7 -10 -15 -10q-4 0 -9 3l-42 30q-6 5 -6 11q0 7 5 14l75 101l-118 36q-16 5 -16 16q0 3 1 5l16 49q3 10 13 10q4 0 10 -2l119 -39l-2 125
q0 19 15 19h52q15 0 15 -20l-1 -124l118 39q6 2 10 2q10 0 13 -10l16 -49q1 -2 1 -5z" />
    <glyph glyph-name="plus" unicode="+" 
d="M548 356q0 -16 -20 -16h-162v-161q0 -20 -16 -20h-70q-16 0 -16 20v161h-161q-20 0 -20 16v70q0 16 20 16h161v162q0 20 16 20h70q16 0 16 -20v-162h162q20 0 20 -16v-70z" />
    <glyph glyph-name="comma" unicode="," horiz-adv-x="259" 
d="M203 140q0 -1 -2 -7l-87 -210q-8 -20 -19 -20h-69q-15 0 -15 14q0 4 1 6l61 210q6 19 20 19h96q14 0 14 -12z" />
    <glyph glyph-name="hyphen" unicode="-" horiz-adv-x="321" 
d="M278 276q0 -18 -19 -18h-196q-20 0 -20 18v63q0 8 6 13.5t14 5.5h196q19 0 19 -19v-63z" />
    <glyph glyph-name="period" unicode="." horiz-adv-x="259" 
d="M194 20q0 -8 -6 -14t-14 -6h-89q-8 0 -14 6t-6 14v113q0 8 6 13.5t14 5.5h89q8 0 14 -5.5t6 -13.5v-113z" />
    <glyph glyph-name="slash" unicode="/" horiz-adv-x="365" 
d="M234 723q6 20 19 20h81q8 0 13 -5t2 -15l-217 -702q-6 -21 -19 -21h-81q-10 0 -14 6.5t-2 14.5z" />
    <glyph glyph-name="zero" unicode="0" 
d="M576 334q0 -180 -67 -261t-194 -81t-194 81t-67 261v74q0 180 67 261.5t194 81.5t194 -81.5t67 -261.5v-74zM437 334v74q0 127 -32.5 178.5t-89.5 51.5t-89.5 -51.5t-32.5 -178.5v-74q0 -127 32.5 -178t89.5 -51t89.5 51t32.5 178z" />
    <glyph glyph-name="one" unicode="1" 
d="M535 0h-406q-8 0 -14 6t-6 14v76q0 18 20 18h134v492l-131 -40q-5 -2 -12 -2q-11 0 -11 12v94q0 8 7 11l177 58q12 4 23 4h66q19 0 19 -19v-610h134q20 0 20 -18v-76q0 -8 -6 -14t-14 -6z" />
    <glyph glyph-name="two" unicode="2" 
d="M553 568q0 -60 -30.5 -105.5t-94.5 -88.5l-90 -60q-75 -51 -108.5 -94t-33.5 -102v-4h329q20 0 20 -18v-76q0 -8 -6 -14t-14 -6h-424q-8 0 -14 6t-6 14v98q0 79 43 148.5t109 113.5l99 66q59 39 75.5 60.5t16.5 61.5t-27 57t-90 17q-71 0 -200 -15h-2q-18 0 -18 20v60
q0 13 19 19q93 25 201 25q130 0 188 -44.5t58 -138.5z" />
    <glyph glyph-name="three" unicode="3" 
d="M546 208q0 -107 -69.5 -161.5t-181.5 -54.5q-90 0 -192 25q-19 4 -19 19v62q0 18 18 18h2q138 -14 191 -14q59 0 85.5 26t26.5 80v21q0 101 -92 101h-177q-19 0 -19 19v63q0 19 19 19h177q53 0 72.5 26t19.5 72v16q0 44 -24.5 70t-87.5 26q-54 0 -191 -14h-2
q-18 0 -18 18v62q0 15 19 19q102 25 192 25q116 0 183.5 -49.5t67.5 -156.5v-16q0 -102 -86 -148q41 -22 63.5 -62.5t22.5 -89.5v-21z" />
    <glyph glyph-name="four" unicode="4" 
d="M592 199q0 -8 -6 -14t-14 -6h-74v-159q0 -20 -18 -20h-103q-18 0 -18 20v159h-300q-8 0 -14 6t-6 14v81q0 18 11 32l308 413q13 18 29 18h91q8 0 14 -6t6 -14v-434h74q8 0 14 -6t6 -14v-70zM360 289v254q0 6 -3 6t-7 -6l-175 -243q-3 -3 -3 -6q0 -5 8 -5h180z" />
    <glyph glyph-name="five" unicode="5" 
d="M552 237q0 -116 -64.5 -180.5t-192.5 -64.5q-97 0 -192 25q-19 6 -19 22v59q0 18 18 18h2q111 -14 191 -14q67 0 92.5 34t25.5 101v5q0 62 -40.5 87t-136.5 25h-135q-4 0 -7.5 4.5t-3.5 8.5v2l32 356q2 18 20 18h363q8 0 14 -5.5t6 -13.5v-76q0 -8 -6 -13.5t-14 -5.5
h-271l-15 -166h17q51 0 92 -4.5t84.5 -18.5t72.5 -37t48 -64.5t19 -96.5v-5z" />
    <glyph glyph-name="six" unicode="6" 
d="M580 240q0 -113 -68 -180.5t-190 -67.5q-118 0 -190 76.5t-72 232.5v115q0 177 68.5 256t208.5 79q95 0 185 -19q23 -5 23 -21v-62q0 -21 -19 -21h-4q-82 13 -185 13q-76 0 -107.5 -40t-33.5 -142q59 11 139 11q108 0 176.5 -52.5t68.5 -167.5v-10zM444 240v10
q0 119 -137 119q-56 0 -111 -11v-57q0 -116 32 -158.5t94 -42.5q122 0 122 140z" />
    <glyph glyph-name="seven" unicode="7" 
d="M554 649q0 -8 -18 -46l-270 -584q-9 -19 -27 -19h-104q-14 0 -14 15q0 3 2 9l287 598v2q0 5 -5 5h-308q-20 0 -20 18v77q0 8 6 13.5t14 5.5h417q16 0 28 -11.5t12 -28.5v-54z" />
    <glyph glyph-name="eight" unicode="8" 
d="M577 215q0 -112 -73 -167.5t-184 -55.5h-10q-111 0 -183.5 55.5t-72.5 167.5v9q0 99 91 163q-87 57 -87 156v4q0 106 70 155t182 49h10q72 0 127 -19t91 -66t36 -119v-4q0 -98 -88 -156q91 -64 91 -163v-9zM445 539v4q0 106 -125 106h-10q-123 0 -123 -106v-4
q0 -46 26.5 -74.5t81.5 -28.5h41q55 0 82 28.5t27 74.5zM442 215v9q0 43 -26 76.5t-80 33.5h-41q-54 0 -80 -33.5t-26 -76.5v-9q0 -53 31 -86t90 -33h10q59 0 90.5 33.5t31.5 85.5z" />
    <glyph glyph-name="nine" unicode="9" 
d="M569 327q0 -177 -68.5 -256t-208.5 -79q-95 0 -185 19q-23 5 -23 21v62q0 21 19 21h4q82 -13 185 -13q76 0 107.5 40t33.5 142q-59 -11 -139 -11q-108 0 -176.5 52.5t-68.5 167.5v10q0 113 68 180.5t190 67.5q118 0 190 -76.5t72 -232.5v-115zM433 385v57
q0 116 -32 158.5t-94 42.5q-122 0 -122 -140v-10q0 -119 137 -119q56 0 111 11z" />
    <glyph glyph-name="colon" unicode=":" horiz-adv-x="259" 
d="M194 414q0 -8 -6 -13.5t-14 -5.5h-89q-8 0 -14 5.5t-6 13.5v113q0 8 6 14t14 6h89q8 0 14 -6t6 -14v-113zM194 20q0 -8 -6 -14t-14 -6h-89q-8 0 -14 6t-6 14v113q0 8 6 13.5t14 5.5h89q8 0 14 -5.5t6 -13.5v-113z" />
    <glyph glyph-name="semicolon" unicode=";" horiz-adv-x="259" 
d="M194 414q0 -8 -6 -13.5t-14 -5.5h-89q-8 0 -14 5.5t-6 13.5v113q0 8 6 14t14 6h89q8 0 14 -6t6 -14v-113zM196 140q0 -1 -2 -7l-87 -210q-8 -20 -19 -20h-69q-15 0 -15 14q0 4 1 6l61 210q6 19 20 19h96q14 0 14 -12z" />
    <glyph glyph-name="less" unicode="&#x3c;" 
d="M514 153q0 -14 -12 -14h-110q-9 0 -22 11l-231 202q-23 20 -23 39t23 39l231 202q13 11 22 11h110q12 0 12 -14q0 -7 -6 -12l-260 -226l260 -226q6 -5 6 -12z" />
    <glyph glyph-name="equal" unicode="=" 
d="M538 477q0 -16 -20 -16h-405q-20 0 -20 16v70q0 16 20 16h405q20 0 20 -16v-70zM538 235q0 -16 -20 -16h-405q-20 0 -20 16v70q0 16 20 16h405q20 0 20 -16v-70z" />
    <glyph glyph-name="greater" unicode="&#x3e;" 
d="M514 391q0 -19 -23 -39l-231 -202q-13 -11 -22 -11h-110q-12 0 -12 14q0 7 6 12l260 226l-260 226q-6 5 -6 12q0 14 12 14h110q9 0 22 -11l231 -202q23 -20 23 -39z" />
    <glyph glyph-name="question" unicode="?" horiz-adv-x="437" 
d="M407 579q0 -22 -3.5 -39t-20 -47.5t-47.5 -67.5l-61 -72q-3 -3 -11 -12.5t-10 -12.5t-8 -10.5t-7.5 -11.5t-4.5 -10.5t-4 -12t-1 -12.5v-38q0 -8 -6 -13.5t-14 -5.5h-83q-19 0 -19 19v38q0 47 12 76.5t47 70.5l64 74q29 34 29 87v16q0 37 -58 37q-53 0 -150 -11h-4
q-17 0 -17 22v62q0 14 3 19.5t15 8.5q69 18 153 18q103 0 154.5 -35t51.5 -121v-16zM233 19q0 -8 -6 -13.5t-14 -5.5h-90q-8 0 -14 5.5t-6 13.5v113q0 8 6 14t14 6h90q8 0 14 -6t6 -14v-113z" />
    <glyph glyph-name="at" unicode="@" horiz-adv-x="772" 
d="M737 362q0 -172 -95.5 -243t-273.5 -71q-78 0 -124 37t-46 106q0 3 0.5 9t0.5 9l9 117q7 82 58 123.5t136 41.5q44 0 132 -15q23 -3 23 -26v-4l-29 -302q73 11 102.5 67t29.5 151q0 98 -61 164t-179 66q-130 0 -205 -64.5t-86 -183.5l-15 -158q-2 -24 -2 -33
q0 -92 63.5 -147t186.5 -55q78 0 145 7h6q7 0 7 -9v-37q0 -12 -13 -13q-75 -10 -145 -10q-147 0 -236.5 70.5t-89.5 194.5q0 21 1 32l15 163q13 143 110 227t259 84q151 0 233.5 -87t82.5 -211zM446 397q-30 5 -55 5q-38 0 -55 -18t-22 -62l-11 -112q-1 -6 -1 -17
q0 -31 17 -43.5t56 -12.5h20q19 0 28 1z" />
    <glyph glyph-name="A" unicode="A" horiz-adv-x="646" 
d="M627 17q0 -17 -18 -17h-106q-15 0 -19 17l-46 190h-230l-46 -190q-4 -17 -19 -17h-106q-18 0 -18 17l1 2v3l164 627q26 102 139 102t139 -102l164 -627v-3zM411 321l-72 297q-4 16 -16 16t-16 -16l-72 -297h176z" />
    <glyph glyph-name="B" unicode="B" horiz-adv-x="650" 
d="M600 208q0 -114 -78.5 -165t-225.5 -51q-116 0 -173 11q-26 5 -37 16t-11 38v630q0 26 10 38t35 16q65 10 167 10q308 0 308 -203v-20q0 -51 -23.5 -91.5t-68.5 -59.5q97 -41 97 -152v-17zM460 526v14q0 53 -38.5 74.5t-134.5 21.5q-31 0 -73 -2v-203h127q119 0 119 95z
M464 210v13q0 47 -29 76.5t-94 29.5h-127v-220q12 0 42 -1t40 -1q93 0 130.5 24.5t37.5 78.5z" />
    <glyph glyph-name="C" unicode="C" horiz-adv-x="563" 
d="M518 31q0 -16 -22 -23q-60 -16 -158 -16q-39 0 -75.5 8t-75.5 29t-67.5 54t-46.5 88.5t-18 126.5v147q0 72 18 128t46.5 88.5t67.5 53.5t75.5 28.5t75.5 7.5q98 0 158 -16q22 -7 22 -23v-67q0 -21 -20 -21h-2q-93 8 -156 8q-145 0 -145 -187v-147q0 -187 145 -187
q63 0 156 8h2q20 0 20 -21v-67z" />
    <glyph glyph-name="D" unicode="D" horiz-adv-x="667" 
d="M612 298q0 -148 -81.5 -227t-232.5 -79q-125 0 -197 12q-26 5 -26 31v673q0 26 26 31q72 12 197 12q151 0 232.5 -79t81.5 -227v-147zM474 298v147q0 105 -46.5 147t-129.5 42q-21 0 -84 -3v-519q63 -3 84 -3q83 0 129.5 42t46.5 147z" />
    <glyph glyph-name="E" unicode="E" horiz-adv-x="576" 
d="M516 27q0 -10 -4.5 -14.5t-15.5 -6.5q-90 -14 -190 -14q-53 0 -91.5 8.5t-72 30t-50.5 63t-17 103.5v349q0 62 17 103.5t50.5 63t72 30t91.5 8.5q100 0 190 -14q11 -2 15.5 -6.5t4.5 -14.5v-64q0 -8 -6 -14t-14 -6h-204q-44 0 -61.5 -18.5t-17.5 -67.5v-108h271
q8 0 14 -6t6 -14v-72q0 -8 -6 -14t-14 -6h-271v-129q0 -49 17.5 -67.5t61.5 -18.5h204q8 0 14 -6t6 -14v-64z" />
    <glyph glyph-name="F" unicode="F" horiz-adv-x="576" 
d="M516 652q0 -8 -6 -14t-14 -6h-204q-44 0 -61.5 -18.5t-17.5 -67.5v-108h271q8 0 14 -6t6 -14v-72q0 -8 -6 -14t-14 -6h-271v-306q0 -8 -6 -14t-14 -6h-98q-8 0 -14 6t-6 14v526q0 62 17 103.5t50.5 63t72 30t91.5 8.5q100 0 190 -14q11 -2 15.5 -6.5t4.5 -14.5v-64z" />
    <glyph glyph-name="G" unicode="G" horiz-adv-x="635" 
d="M560 33q0 -20 -19 -24q-85 -17 -218 -17q-35 0 -69.5 9t-71 31.5t-64.5 56t-45.5 88t-17.5 122.5v144q0 85 25 147.5t66.5 96t86.5 49t93 15.5q116 0 215 -18q19 -4 19 -21v-67q0 -21 -20 -21h-3q-92 8 -211 8q-57 0 -94 -45t-37 -144v-144q0 -98 38 -143t90 -45
q53 0 99 3v255q0 8 5.5 14t13.5 6h99q8 0 14 -6t6 -14v-336z" />
    <glyph glyph-name="H" unicode="H" horiz-adv-x="712" 
d="M637 20q0 -8 -6 -14t-14 -6h-99q-8 0 -14 6t-6 14v306h-284v-306q0 -8 -6 -14t-14 -6h-99q-8 0 -14 6t-6 14v704q0 8 6 13.5t14 5.5h99q8 0 14 -5.5t6 -13.5v-276h284v276q0 8 6 13.5t14 5.5h99q8 0 14 -5.5t6 -13.5v-704z" />
    <glyph glyph-name="I" unicode="I" horiz-adv-x="289" 
d="M214 20q0 -8 -6 -14t-14 -6h-99q-8 0 -14 6t-6 14v704q0 8 6 13.5t14 5.5h99q8 0 14 -5.5t6 -13.5v-704z" />
    <glyph glyph-name="J" unicode="J" horiz-adv-x="289" 
d="M214 -21q0 -78 -38.5 -112t-121.5 -34q-52 0 -80 8q-10 3 -10 14v71q0 18 20 18h66q14 0 19.5 7t5.5 28v745q0 8 6 13.5t14 5.5h99q8 0 14 -5.5t6 -13.5v-745z" />
    <glyph glyph-name="K" unicode="K" horiz-adv-x="643" 
d="M615 9q0 -9 -15 -9h-134q-16 0 -23 11l-229 341v-332q0 -8 -6 -14t-14 -6h-99q-8 0 -14 6t-6 14v703q0 8 6 13.5t14 5.5h99q8 0 14 -5.5t6 -13.5v-318l245 329q6 8 23 8h114q19 0 19 -12q0 -7 -7 -16l-256 -331l258 -362q5 -8 5 -12z" />
    <glyph glyph-name="L" unicode="L" horiz-adv-x="516" 
d="M496 27q0 -10 -4 -14.5t-16 -6.5q-60 -14 -170 -14q-53 0 -91.5 8.5t-72 30t-50.5 63t-17 103.5v526q0 8 6 14t14 6h99q8 0 14 -6t6 -14v-526q0 -49 17 -67.5t61 -18.5h184q8 0 14 -6t6 -14v-64z" />
    <glyph glyph-name="M" unicode="M" horiz-adv-x="792" 
d="M717 15q0 -15 -17 -15h-101q-7 0 -11.5 6t-4.5 14v465q0 10 -3 10q-1 0 -5 -6l-96 -191q-9 -17 -32 -17h-101q-23 0 -32 17l-97 191q-4 6 -5 6q-3 0 -3 -10v-465q0 -8 -4.5 -14t-11.5 -6h-101q-17 0 -17 15v688q0 17 11.5 28.5t28.5 11.5h82q25 0 37 -24l151 -306
q8 -14 11 -14t11 14l151 306q12 24 37 24h82q17 0 28.5 -11.5t11.5 -28.5v-688z" />
    <glyph glyph-name="N" unicode="N" horiz-adv-x="712" 
d="M637 40q0 -16 -11.5 -28t-28.5 -12h-101q-16 0 -24 1t-18.5 9.5t-18.5 25.5l-222 487q-4 8 -9 8t-5 -8v-503q0 -8 -5.5 -14t-13.5 -6h-85q-8 0 -14 6t-6 14v683q0 17 11.5 28.5t28.5 11.5h108q16 0 25.5 -6.5t18.5 -25.5l233 -514q3 -8 8 -8t5 9v526q0 19 19 19h86
q19 0 19 -19v-684z" />
    <glyph glyph-name="O" unicode="O" horiz-adv-x="680" 
d="M625 304q0 -158 -77 -235t-208 -77t-208 77t-77 235v135q0 158 77 235t208 77t208 -77t77 -235v-135zM485 304v135q0 98 -35.5 144.5t-109.5 46.5t-109.5 -46.5t-35.5 -144.5v-135q0 -98 35.5 -144.5t109.5 -46.5t109.5 46.5t35.5 144.5z" />
    <glyph glyph-name="P" unicode="P" horiz-adv-x="626" 
d="M591 511q0 -64 -23 -111t-64 -73t-90.5 -38t-110.5 -12q-12 0 -28 0.5t-35 2t-26 1.5v-261q0 -8 -5.5 -14t-13.5 -6h-100q-8 0 -14 6t-6 14v688q0 25 32 30q85 13 196 13q61 0 110.5 -11.5t90.5 -37t64 -72t23 -110.5v-9zM453 511v9q0 62 -36.5 89t-113.5 27
q-53 0 -89 -4v-238q48 -3 89 -3q79 0 114.5 29.5t35.5 90.5z" />
    <glyph glyph-name="Q" unicode="Q" horiz-adv-x="690" 
d="M630 304q0 -136 -58.5 -212.5t-160.5 -94.5v-21q0 -32 30 -32h97q24 0 24 -16v-62q0 -15 -22 -21q-44 -11 -99 -11q-162 0 -162 140v23q-102 18 -160.5 94.5t-58.5 212.5v135q0 158 77 235t208 77t208 -77t77 -235v-135zM490 304v135q0 98 -35.5 144.5t-109.5 46.5
t-109.5 -46.5t-35.5 -144.5v-135q0 -98 35.5 -144.5t109.5 -46.5t109.5 46.5t35.5 144.5z" />
    <glyph glyph-name="R" unicode="R" horiz-adv-x="653" 
d="M615 12q0 -12 -12 -12h-122q-10 0 -20 20l-144 267h-14q-12 0 -28 0.5t-35 2t-26 1.5v-271q0 -8 -5.5 -14t-13.5 -6h-100q-8 0 -14 6t-6 14v688q0 25 32 30q85 13 196 13q61 0 110.5 -11.5t90.5 -37t64 -70.5t23 -107v-9q0 -151 -135 -204l157 -292q2 -3 2 -8zM453 516v9
q0 56 -37 81.5t-113 25.5q-53 0 -89 -4v-225q48 -3 89 -3q79 0 114.5 26t35.5 90z" />
    <glyph glyph-name="S" unicode="S" horiz-adv-x="570" 
d="M525 201q0 -87 -62.5 -148t-200.5 -61q-98 0 -177 18q-19 4 -19 20v72q0 8 5.5 13.5t13.5 5.5h2q80 -10 177 -10q64 0 90 22t26 68q0 29 -17.5 48.5t-67.5 49.5l-132 79q-66 39 -92 83t-26 100q0 190 250 190q115 0 192 -18q18 -4 18 -19v-74q0 -18 -17 -18h-2
q-110 10 -197 10q-105 0 -105 -71q0 -25 17 -43.5t65 -45.5l120 -67q78 -43 108.5 -91.5t30.5 -112.5z" />
    <glyph glyph-name="T" unicode="T" horiz-adv-x="579" 
d="M554 645q0 -18 -20 -18h-175v-607q0 -8 -6 -14t-14 -6h-99q-8 0 -14 6t-6 14v607h-175q-20 0 -20 18v79q0 8 6 13.5t14 5.5h489q8 0 14 -5.5t6 -13.5v-79z" />
    <glyph glyph-name="U" unicode="U" horiz-adv-x="690" 
d="M620 275q0 -283 -275 -283t-275 283v449q0 8 6 13.5t14 5.5h99q8 0 14 -5.5t6 -13.5v-449q0 -90 29 -129t107 -39t107 39t29 129v449q0 8 6 13.5t14 5.5h99q8 0 14 -5.5t6 -13.5v-449z" />
    <glyph glyph-name="V" unicode="V" horiz-adv-x="656" 
d="M632 726q0 -1 -0.5 -2.5t-0.5 -2.5l-164 -627q-26 -102 -139 -102t-139 102l-164 627q0 1 -0.5 2.5t-0.5 2.5q0 17 18 17h106q15 0 19 -17l145 -601q4 -16 16 -16t16 16l145 601q4 17 19 17h106q18 0 18 -17z" />
    <glyph glyph-name="W" unicode="W" horiz-adv-x="862" 
d="M838 729v-3l-94 -653q-7 -46 -28 -63.5t-62 -17.5h-54q-34 0 -53.5 18.5t-29.5 61.5l-79 330q-2 11 -6 11q-5 0 -7 -11l-79 -330q-10 -43 -29.5 -61.5t-53.5 -18.5h-54q-41 0 -62 17.5t-28 63.5l-94 653v3q0 14 17 14h106q15 0 17 -18l72 -597q2 -15 5 -15t6 15l86 351
q11 45 63 45h69q52 0 63 -45l86 -351q3 -15 6 -15t5 15l72 597q2 18 17 18h106q17 0 17 -14z" />
    <glyph glyph-name="X" unicode="X" horiz-adv-x="650" 
d="M627 12q0 -12 -16 -12h-118q-13 0 -26 20l-147 236l-138 -236q-11 -20 -26 -20h-109q-16 0 -16 13q0 3 2 7l213 355l-219 349q-2 4 -2 6q0 13 16 13h118q13 0 26 -19l146 -233l135 233q11 19 26 19h109q16 0 16 -13q0 -2 -2 -6l-210 -352l220 -352q2 -3 2 -8z" />
    <glyph glyph-name="Y" unicode="Y" horiz-adv-x="615" 
d="M590 728q0 -2 -2 -8l-152 -347q-25 -58 -61 -73v-280q0 -8 -5.5 -14t-13.5 -6h-100q-8 0 -13.5 6t-5.5 14v280q-36 15 -61 73l-151 347q-2 6 -2 8q0 15 16 15h111q13 0 19 -16l120 -298q8 -20 17 -20q10 0 18 20l120 298q6 16 19 16h110q17 0 17 -15z" />
    <glyph glyph-name="Z" unicode="Z" horiz-adv-x="588" 
d="M548 20q0 -8 -6 -14t-14 -6h-437q-51 0 -51 37v55q0 19 13 38l317 475q3 5 3 9q0 8 -10 8h-278q-19 0 -19 18v84q0 19 19 19h403q23 0 38 -9.5t15 -28.5v-58q0 -20 -14 -41l-312 -467q-4 -5 -4 -11t9 -6h308q20 0 20 -18v-84z" />
    <glyph glyph-name="bracketleft" unicode="[" horiz-adv-x="356" 
d="M328 -178q0 -16 -19 -16h-222q-7 0 -12 5.5t-5 13.5v899q0 8 5 13.5t12 5.5h222q19 0 19 -16v-73q0 -17 -19 -17h-105v-725h105q19 0 19 -17v-73z" />
    <glyph glyph-name="backslash" unicode="\" horiz-adv-x="385" 
d="M371 8q0 -6 -5 -11t-12 -5h-101q-12 0 -18 21l-219 710q0 1 -0.5 2.5t-0.5 2.5q0 6 5 10.5t12 4.5h100q14 0 20 -20l218 -710q0 -1 0.5 -2.5t0.5 -2.5z" />
    <glyph glyph-name="bracketright" unicode="]" horiz-adv-x="356" 
d="M286 -175q0 -8 -5 -13.5t-12 -5.5h-222q-19 0 -19 16v73q0 17 19 17h105v725h-105q-19 0 -19 16v73q0 17 19 17h222q7 0 12 -5.5t5 -13.5v-899z" />
    <glyph glyph-name="asciicircum" unicode="^" 
d="M548 573q0 -9 -12 -9h-102q-15 0 -30 16l-89 102l-89 -102q-15 -16 -30 -16h-102q-12 0 -12 9q0 5 5 12l113 148q14 18 32 18h166q18 0 32 -18l113 -148q5 -7 5 -12z" />
    <glyph glyph-name="underscore" unicode="_" horiz-adv-x="523" 
d="M554 -98q0 -16 -20 -16h-545q-20 0 -20 16v39q0 16 20 16h545q20 0 20 -16v-39z" />
    <glyph glyph-name="grave" unicode="`" horiz-adv-x="415" 
d="M273 634q0 -7 -9 -7h-86q-11 0 -23 13l-119 124q-4 4 -4 8q0 7 11 7h106q14 0 26 -15l94 -120q4 -4 4 -10z" />
    <glyph glyph-name="a" unicode="a" horiz-adv-x="548" 
d="M483 20q0 -8 -6 -14t-14 -6h-85q-8 0 -14 6t-6 14v16q-72 -44 -141 -44q-74 0 -123.5 37.5t-49.5 129.5v4q0 87 58 130t186 43h63v44q0 47 -20.5 64t-67.5 17q-97 0 -163 -8h-5q-18 0 -18 17v64q0 17 19 21q80 16 167 16q220 0 220 -191v-360zM351 125v123h-63
q-65 0 -88 -20t-23 -65v-4q0 -36 16.5 -49t55.5 -13q51 0 102 28z" />
    <glyph glyph-name="b" unicode="b" horiz-adv-x="577" 
d="M532 243q0 -119 -60.5 -185t-178.5 -66q-100 0 -201 26q-17 4 -22 9.5t-5 17.5v696q0 8 6 14t14 6h92q8 0 14 -6t6 -14v-177q52 7 96 7q118 0 178.5 -66t60.5 -185v-77zM400 243v77q0 68 -23.5 105.5t-83.5 37.5q-47 0 -96 -7v-349q33 -7 96 -7q60 0 83.5 37.5
t23.5 105.5z" />
    <glyph glyph-name="c" unicode="c" horiz-adv-x="468" 
d="M423 31q0 -12 -4 -17.5t-17 -8.5q-50 -13 -129 -13q-102 0 -165 62.5t-63 180.5v93q0 118 63 180.5t165 62.5q79 0 129 -13q13 -3 17 -8.5t4 -17.5v-65q0 -15 -18 -15h-3q-56 7 -129 7q-41 0 -68.5 -30t-27.5 -101v-93q0 -71 27.5 -101t68.5 -30q73 0 129 7h3
q18 0 18 -15v-65z" />
    <glyph glyph-name="d" unicode="d" horiz-adv-x="577" 
d="M512 45q0 -12 -5 -17.5t-22 -9.5q-101 -26 -201 -26q-118 0 -178.5 66t-60.5 185v77q0 119 60.5 185t178.5 66q44 0 96 -7v177q0 8 6 14t14 6h92q8 0 14 -6t6 -14v-696zM380 107v349q-49 7 -96 7q-60 0 -83.5 -37.5t-23.5 -105.5v-77q0 -68 23.5 -105.5t83.5 -37.5
q63 0 96 7z" />
    <glyph glyph-name="e" unicode="e" horiz-adv-x="574" 
d="M526 261q0 -25 -20 -25h-326v-3q0 -53 27.5 -90t92.5 -37q79 0 184 10h3q18 0 18 -15v-66q0 -23 -21 -26q-92 -17 -194 -17q-41 0 -80.5 12t-77.5 39t-61 78.5t-23 121.5v74q0 118 63 186t177 68q113 0 175.5 -69.5t62.5 -184.5v-56zM393 330v4q0 58 -29 90.5t-76 32.5
q-48 0 -77.5 -32.5t-29.5 -90.5v-4h212z" />
    <glyph glyph-name="f" unicode="f" horiz-adv-x="395" 
d="M375 690q0 -17 -15 -17h-45q-36 0 -47.5 -11.5t-11.5 -48.5v-49h96q8 0 14 -6t6 -14v-60q0 -8 -6 -13.5t-14 -5.5h-96v-444q0 -8 -6 -14.5t-14 -6.5h-91q-8 0 -14.5 6.5t-6.5 14.5v444l-89 14q-20 4 -20 19v46q0 8 6 14t14 6h89v49q0 91 44 125.5t129 34.5q22 0 60 -8
q18 -5 18 -16v-59z" />
    <glyph glyph-name="g" unicode="g" horiz-adv-x="584" 
d="M556 495q0 -11 -3 -14.5t-13 -7.5l-33 -13q25 -36 25 -80v-7q0 -182 -237 -182q-67 0 -109 17q-17 -11 -17 -26q0 -26 34 -33l118 -28q44 -10 65 -15.5t52.5 -16t46.5 -20.5t31.5 -25.5t22.5 -36t6 -46.5v-7q0 -157 -245 -157q-121 0 -184.5 43.5t-63.5 122.5v9
q0 64 51 110q-45 34 -45 92v1q0 53 40 81q-41 42 -41 117v7q0 82 58 133t180 51h234q11 0 19 -8t8 -19v-42zM402 370v8q0 40 -23.5 62.5t-83.5 22.5q-108 0 -108 -85v-8q0 -79 108 -79q59 0 83 19.5t24 59.5zM413 -46v7q0 18 -22 30t-96 30l-89 21q-10 -14 -14 -20.5
t-7.5 -19.5t-3.5 -30v-9q0 -33 26 -49.5t93 -16.5q68 0 90.5 13.5t22.5 43.5z" />
    <glyph glyph-name="h" unicode="h" horiz-adv-x="592" 
d="M527 21q0 -8 -6 -14.5t-14 -6.5h-92q-8 0 -14 6.5t-6 14.5v329q0 66 -16 87.5t-66 21.5q-51 0 -116 -34v-404q0 -8 -6 -14.5t-14 -6.5h-92q-8 0 -14 6.5t-6 14.5v720q0 8 6 14t14 6h92q8 0 14 -6t6 -14v-207q61 37 151 37q179 0 179 -221v-329z" />
    <glyph glyph-name="i" unicode="i" horiz-adv-x="268" 
d="M203 659q0 -8 -6 -14t-14 -6h-97q-8 0 -14.5 6t-6.5 14v88q0 8 6.5 14t14.5 6h97q8 0 14 -6t6 -14v-88zM200 21q0 -8 -6 -14.5t-14 -6.5h-92q-8 0 -14 6.5t-6 14.5v523q0 8 6 14t14 6h92q8 0 14 -6t6 -14v-523z" />
    <glyph glyph-name="j" unicode="j" horiz-adv-x="268" 
d="M203 659q0 -8 -6.5 -14t-14.5 -6h-96q-8 0 -14 6t-6 14v88q0 8 6 14t14 6h96q8 0 14.5 -6t6.5 -14v-88zM200 -42q0 -87 -37 -122.5t-111 -35.5q-30 0 -66 6q-19 3 -19 18v65q0 16 21 16h45q23 0 29 10.5t6 42.5v586q0 8 6 14t14 6h92q8 0 14 -6t6 -14v-586z" />
    <glyph glyph-name="k" unicode="k" horiz-adv-x="549" 
d="M519 12q0 -12 -14 -12h-122q-16 0 -29 20l-157 228v-227q0 -8 -6 -14.5t-14 -6.5h-92q-8 0 -14 6.5t-6 14.5v720q0 8 6 14t14 6h92q8 0 14 -6t6 -14v-417l171 228q9 12 23 12h112q15 0 15 -11q0 -5 -4 -10l-201 -247l203 -276q3 -5 3 -8z" />
    <glyph glyph-name="l" unicode="l" horiz-adv-x="272" 
d="M202 21q0 -8 -5.5 -14.5t-13.5 -6.5h-93q-8 0 -14 6.5t-6 14.5v720q0 8 6 14t14 6h93q8 0 13.5 -6t5.5 -14v-720z" />
    <glyph glyph-name="m" unicode="m" horiz-adv-x="848" 
d="M783 21q0 -8 -6 -14.5t-14 -6.5h-92q-8 0 -14 6.5t-6 14.5v340q0 57 -15 77t-57 20q-46 0 -93 -25q4 -29 4 -72v-340q0 -8 -6 -14.5t-14 -6.5h-92q-8 0 -14 6.5t-6 14.5v340q0 58 -13.5 77.5t-55.5 19.5q-31 0 -92 -33v-404q0 -8 -6 -14.5t-14 -6.5h-92q-8 0 -14 6.5
t-6 14.5v523q0 8 6 14t14 6h87q8 0 14 -6t6 -14v-21q75 48 143 48q80 0 117 -45q82 45 165 45q94 0 130 -55.5t36 -154.5v-340z" />
    <glyph glyph-name="n" unicode="n" horiz-adv-x="592" 
d="M527 21q0 -8 -6 -14.5t-14 -6.5h-92q-8 0 -14 6.5t-6 14.5v326q0 69 -14.5 90.5t-70.5 21.5q-44 0 -113 -36v-402q0 -8 -6 -14.5t-14 -6.5h-92q-8 0 -14 6.5t-6 14.5v523q0 8 6 14t14 6h87q8 0 14 -6t6 -14v-21q43 28 77.5 38t84.5 10q52 0 87.5 -16.5t53.5 -48.5
t25 -69.5t7 -89.5v-326z" />
    <glyph glyph-name="o" unicode="o" horiz-adv-x="574" 
d="M526 241q0 -111 -62.5 -180t-176.5 -69t-176.5 69t-62.5 180v81q0 111 62.5 180t176.5 69t176.5 -69t62.5 -180v-81zM394 241v81q0 63 -27.5 99t-79.5 36t-79.5 -36t-27.5 -99v-81q0 -63 27.5 -99t79.5 -36t79.5 36t27.5 99z" />
    <glyph glyph-name="p" unicode="p" horiz-adv-x="577" 
d="M532 243q0 -119 -60.5 -185t-178.5 -66q-44 0 -96 7v-177q0 -8 -6 -14t-14 -6h-92q-8 0 -14 6t-6 14v696q0 12 5 17.5t22 9.5q101 26 201 26q118 0 178.5 -66t60.5 -185v-77zM400 243v77q0 68 -23.5 105.5t-83.5 37.5q-63 0 -96 -7v-349q49 -7 96 -7q60 0 83.5 37.5
t23.5 105.5z" />
    <glyph glyph-name="q" unicode="q" horiz-adv-x="577" 
d="M512 -178q0 -8 -6 -14t-14 -6h-92q-8 0 -14 6t-6 14v177q-52 -7 -96 -7q-118 0 -178.5 66t-60.5 185v77q0 119 60.5 185t178.5 66q100 0 201 -26q17 -4 22 -9.5t5 -17.5v-696zM380 107v349q-33 7 -96 7q-60 0 -83.5 -37.5t-23.5 -105.5v-77q0 -68 23.5 -105.5t83.5 -37.5
q47 0 96 7z" />
    <glyph glyph-name="r" unicode="r" horiz-adv-x="375" 
d="M355 479q0 -8 -6 -14t-14 -6q-69 0 -138 -36v-402q0 -8 -6 -14.5t-14 -6.5h-92q-8 0 -14 6.5t-6 14.5v523q0 8 6 14t14 6h87q8 0 14 -6t6 -14v-21q62 48 143 48q8 0 14 -6t6 -14v-72z" />
    <glyph glyph-name="s" unicode="s" horiz-adv-x="489" 
d="M444 148q0 -68 -51 -112t-145 -44q-104 0 -179 20q-19 5 -19 23v60q0 6 5 11t12 5h4q88 -11 168 -11q43 0 57 12t14 36t-44 51l-137 84q-38 23 -61 59.5t-23 78.5q0 150 190 150q85 0 178 -20q18 -5 18 -23v-58q0 -19 -16 -19h-4q-84 12 -165 12q-37 0 -53 -9.5
t-16 -32.5q0 -11 9 -19.5t31 -21.5l131 -80q58 -35 77 -71t19 -81z" />
    <glyph glyph-name="t" unicode="t" horiz-adv-x="405" 
d="M380 17q0 -15 -19 -18q-42 -7 -68 -7q-89 0 -124 31.5t-35 127.5v314l-94 14q-20 4 -20 20v45q0 8 6 14t14 6h94v82q0 16 20 20l93 16h4q16 0 16 -15v-103h90q8 0 14 -6t6 -14v-59q0 -8 -6 -14t-14 -6h-90v-314q0 -38 6 -47t33 -9h53q21 0 21 -15v-63z" />
    <glyph glyph-name="u" unicode="u" horiz-adv-x="592" 
d="M527 20q0 -8 -6 -14t-14 -6h-92q-8 0 -14 6t-6 14v23q-76 -50 -157 -50t-123 42q-50 50 -50 182v326q0 8 6 14.5t14 6.5h92q8 0 14 -6.5t6 -14.5v-326q0 -75 23 -96q21 -18 62 -18q38 0 113 40v400q0 8 6 14.5t14 6.5h92q8 0 14 -6.5t6 -14.5v-523z" />
    <glyph glyph-name="v" unicode="v" horiz-adv-x="551" 
d="M527 548q0 -5 -1 -7l-126 -455q-25 -94 -125 -94q-99 0 -124 94l-126 455q-1 2 -1 7q0 16 16 16h100q15 0 20 -20l96 -419q5 -25 19 -25t19 25l96 419q5 20 21 20h100q16 0 16 -16z" />
    <glyph glyph-name="w" unicode="w" horiz-adv-x="819" 
d="M793 544v-3l-91 -460q-9 -47 -27 -65.5t-62 -18.5h-27q-76 0 -95 78l-79 306q-1 5 -3 5t-3 -5l-79 -306q-19 -78 -95 -78h-27q-44 0 -62 18.5t-27 65.5l-91 460v3q0 8 6 14t14 6h97q16 0 18 -18l63 -423q2 -14 5 -14q4 0 7 14l83 336q7 28 18 35.5t38 7.5h70
q27 0 38 -7.5t18 -35.5l83 -336q3 -14 7 -14q3 0 5 14l63 423q2 18 18 18h97q8 0 14 -6t6 -14z" />
    <glyph glyph-name="x" unicode="x" horiz-adv-x="557" 
d="M537 13q0 -13 -15 -13h-114q-14 0 -27 20l-114 176l-108 -176q-13 -20 -27 -20h-103q-12 0 -12 11q0 5 3 9l179 271l-169 253q-2 4 -2 6q0 5 4.5 9.5t11.5 4.5h114q13 0 26 -20l101 -156l94 156q12 20 27 20h103q12 0 12 -11q0 -5 -3 -9l-165 -252l182 -272q2 -4 2 -7z
" />
    <glyph glyph-name="y" unicode="y" horiz-adv-x="560" 
d="M535 547q0 -4 -1 -6l-167 -584q-17 -59 -37 -90.5t-60 -49t-107 -17.5q-63 0 -106 13q-21 6 -21 17v64q0 18 20 18h2q10 0 53.5 -3t59.5 -3q34 0 51.5 13t27.5 51l8 30h-15q-13 0 -23 2.5t-22.5 10t-23 25.5t-18.5 45l-131 458q-1 3 -1 7q0 16 19 16h101q15 0 19 -18
l101 -407q5 -22 14 -22h1h5h3l108 430q4 17 20 17h102q7 0 12.5 -5t5.5 -12z" />
    <glyph glyph-name="z" unicode="z" horiz-adv-x="490" 
d="M450 20q0 -8 -6 -14t-14 -6h-350q-16 0 -28 12t-12 28v43q0 15 13 32l242 333q3 5 3 6q0 3 -6 3h-226q-18 0 -18 16v71q0 8 6 14t14 6h340q16 0 28 -12t12 -29v-57q0 -16 -5 -23l-233 -319l-2 -3q0 -4 6 -4h218q18 0 18 -16v-81z" />
    <glyph glyph-name="braceleft" unicode="{" horiz-adv-x="363" 
d="M353 -181q0 -17 -19 -17h-56q-110 0 -146 34.5t-36 132.5v152q0 72 -59 112v80q31 21 44.5 47t13.5 65v151q0 98 36 132.5t146 34.5h57q19 0 19 -17v-73q0 -16 -19 -16h-47q-37 0 -47.5 -12t-10.5 -49v-151q0 -105 -78 -152q79 -47 79 -152v-152q0 -37 10.5 -49t47.5 -12
h46q19 0 19 -16v-73z" />
    <glyph glyph-name="bar" unicode="|" horiz-adv-x="274" 
d="M204 -174q0 -8 -5.5 -14t-13.5 -6h-95q-8 0 -14 6t-6 14v897q0 8 6 14t14 6h95q8 0 13.5 -6t5.5 -14v-897z" />
    <glyph glyph-name="braceright" unicode="}" horiz-adv-x="363" 
d="M326 233q-59 -40 -59 -112v-152q0 -98 -36 -132.5t-146 -34.5h-56q-19 0 -19 17v73q0 16 19 16h46q37 0 47.5 12t10.5 49v152q0 105 79 152q-78 47 -78 152v151q0 37 -10.5 49t-47.5 12h-47q-19 0 -19 16v73q0 17 19 17h57q110 0 146 -34.5t36 -132.5v-151
q0 -39 13.5 -65t44.5 -47v-80z" />
    <glyph glyph-name="asciitilde" unicode="~" 
d="M552 475q0 -74 -31.5 -106.5t-97.5 -32.5q-46 0 -75 20l-88 61q-19 13 -39 13q-36 0 -36 -42v-26q0 -20 -17 -20h-71q-18 0 -18 20v26q0 74 32 107t98 33q44 0 74 -21l88 -60q19 -13 40 -13q18 0 26.5 9t8.5 32v26q0 20 17 20h70q19 0 19 -20v-26z" />
    <glyph glyph-name="uni00A0" unicode="&#xa0;" horiz-adv-x="250" 
 />
    <glyph glyph-name="exclamdown" unicode="&#xa1;" horiz-adv-x="256" 
d="M192 431q0 -19 -19 -19h-90q-19 0 -19 19v113q0 8 5.5 14t13.5 6h90q8 0 13.5 -6t5.5 -14v-113zM196 -181q0 -7 -6.5 -13t-14.5 -6h-95q-8 0 -14 5.5t-6 13.5l15 508q0 8 6 14t14 6h65q8 0 14.5 -6t6.5 -14z" />
    <glyph glyph-name="cent" unicode="&#xa2;" 
d="M494 31q0 -12 -4 -17.5t-17 -8.5q-42 -10 -85 -12v-80q0 -8 -6 -14t-14 -6h-82q-8 0 -14 6t-6 14v90q-69 21 -109.5 80t-40.5 152v93q0 93 40.5 152t109.5 80v88q0 8 6 14t14 6h82q8 0 14 -6t6 -14v-78q43 -2 85 -12q13 -3 17 -8.5t4 -17.5v-65q0 -15 -18 -15h-3
q-56 7 -129 7q-41 0 -68.5 -30t-27.5 -101v-93q0 -71 27.5 -101t68.5 -30q73 0 129 7h3q18 0 18 -15v-65z" />
    <glyph glyph-name="sterling" unicode="&#xa3;" 
d="M562 629q0 -18 -17 -18h-2q-133 10 -162 10q-58 0 -82.5 -18.5t-24.5 -69.5v-96h185q8 0 14 -5.5t6 -13.5v-75q0 -18 -19 -18h-186v-125q0 -47 -24 -89h291q20 0 20 -17v-76q0 -18 -20 -18h-427q-18 0 -18 26v51q0 11 8 23q34 50 34 100v125h-50q-19 0 -19 18v75
q0 8 6 13.5t14 5.5h49v96q0 102 54.5 152t188.5 50q86 0 163 -14q12 -2 15 -6t3 -13v-73z" />
    <glyph glyph-name="currency" unicode="&#xa4;" 
d="M571 562q0 -8 -7 -15l-85 -84q26 -43 26 -91q0 -52 -27 -95l83 -84q7 -7 7 -15q0 -6 -5 -11l-47 -48q-5 -5 -11 -5q-8 0 -15 7l-86 86q-40 -24 -88 -24q-50 0 -91 25l-85 -84q-10 -8 -16 -8q-5 0 -10 5l-47 48q-5 7 -5 12q0 8 7 15l84 83q-27 44 -27 93q0 48 24 88
l-84 84q-7 7 -7 15q0 7 5 12l48 48q5 5 10 5q8 0 16 -8l82 -82q43 27 96 27q49 0 92 -26l84 84q7 7 15 7q6 0 11 -5l48 -48q5 -5 5 -11zM409 374q0 38 -27 64.5t-65 26.5t-65.5 -26.5t-27.5 -64.5t27.5 -65.5t65.5 -27.5t65 27.5t27 65.5z" />
    <glyph glyph-name="yen" unicode="&#xa5;" 
d="M601 730q0 -4 -3 -10l-114 -227h93q20 0 20 -18v-63q0 -18 -19 -18h-143l-50 -99v-12h192q20 0 20 -18v-63q0 -18 -19 -18h-193v-164q0 -8 -5.5 -14t-13.5 -6h-103q-18 0 -18 20v164h-194q-19 0 -19 18v63q0 18 20 18h193v12l-50 99h-144q-19 0 -19 18v63q0 18 20 18h94
l-114 227q-3 6 -3 10q0 13 16 13h114q10 0 18 -16l138 -294l138 294q8 16 19 16h113q16 0 16 -13z" />
    <glyph glyph-name="brokenbar" unicode="&#xa6;" horiz-adv-x="274" 
d="M204 363q0 -8 -5.5 -14.5t-13.5 -6.5h-95q-8 0 -14 6.5t-6 14.5v345q0 8 6 14t14 6h95q8 0 13.5 -6t5.5 -14v-345zM204 -190q0 -8 -5.5 -14.5t-13.5 -6.5h-95q-8 0 -14 6.5t-6 14.5v345q0 8 6 14t14 6h95q8 0 13.5 -6t5.5 -14v-345z" />
    <glyph glyph-name="section" unicode="&#xa7;" horiz-adv-x="573" 
d="M529 -3q0 -91 -61.5 -152t-200.5 -61q-101 0 -184 19q-20 4 -20 19v78q0 8 6 13t14 5h2q118 -12 177 -12h7q62 1 86 23t24 65q0 29 -16 48.5t-65 48.5l-125 74q-74 44 -101.5 88.5t-27.5 106.5q0 64 28 103q-28 43 -28 105q0 88 57.5 135.5t191.5 47.5q121 0 197 -18
q19 -4 19 -19v-79q0 -8 -5.5 -13t-13.5 -5h-1q-176 11 -194 11h-3q-55 0 -79 -16.5t-24 -50.5q0 -25 16 -44t64 -45l120 -67q79 -44 109.5 -90.5t30.5 -109.5q0 -62 -26 -107q26 -40 26 -101zM411 206q0 39 -20.5 63.5t-84.5 62.5l-79 47q-39 23 -54 37q-19 -22 -19 -60
q0 -33 19 -55.5t76 -56.5l77 -46q48 -29 73 -52q12 23 12 60z" />
    <glyph glyph-name="dieresis" unicode="&#xa8;" horiz-adv-x="415" 
d="M365 659q0 -8 -6.5 -14t-14.5 -6h-72q-8 0 -14.5 6t-6.5 14v88q0 8 6.5 14t14.5 6h72q8 0 14.5 -6t6.5 -14v-88zM165 659q0 -8 -6.5 -14t-14.5 -6h-72q-8 0 -14.5 6t-6.5 14v88q0 8 6.5 14t14.5 6h72q8 0 14.5 -6t6.5 -14v-88z" />
    <glyph glyph-name="copyright" unicode="&#xa9;" horiz-adv-x="750" 
d="M705 374q0 -136 -97 -232.5t-234 -96.5q-136 0 -232.5 96.5t-96.5 232.5q0 137 96.5 234.5t232.5 97.5t233.5 -97.5t97.5 -234.5zM656 374q0 116 -83 199.5t-199 83.5t-198.5 -83.5t-82.5 -199.5t82.5 -198t198.5 -82t199 82t83 198zM477 183q0 -11 -14 -14
q-36 -9 -86 -9q-77 0 -120 46t-43 141v60q0 95 43 141t120 46q52 0 86 -9q14 -3 14 -13v-49q0 -12 -13 -12h-2q-55 5 -85 5q-76 0 -76 -109v-60q0 -109 76 -109q30 0 85 5h2q13 0 13 -12v-48z" />
    <glyph glyph-name="ordfeminine" unicode="&#xaa;" horiz-adv-x="335" 
d="M298 431q0 -13 -9 -16q-56 -15 -116 -15q-73 0 -107 26t-34 80v7q0 96 152 96h26v13q0 29 -11.5 40.5t-35.5 11.5q-41 0 -93 -5h-1q-14 0 -14 14v38q0 11 14 15q50 12 94 12q135 0 135 -126v-191zM210 468v89l-7 1h-12q-6 0 -7 -1q-37 0 -52.5 -10t-15.5 -34v-7
q0 -23 12.5 -32.5t44.5 -9.5q1 0 37 4z" />
    <glyph glyph-name="guillemotleft" unicode="&#xab;" horiz-adv-x="689" 
d="M652 77q0 -11 -15 -11h-95q-17 0 -30 13l-162 178q-8 8 -8 25t8 25l162 178q13 13 30 13h95q15 0 15 -11q0 -4 -3 -7l-181 -198l181 -198q3 -3 3 -7zM365 77q0 -11 -15 -11h-95q-17 0 -30 13l-162 178q-8 8 -8 25t8 25l162 178q13 13 30 13h95q15 0 15 -11q0 -4 -3 -7
l-181 -198l181 -198q3 -3 3 -7z" />
    <glyph glyph-name="logicalnot" unicode="&#xac;" 
d="M538 203q0 -8 -6 -14t-14 -6h-62q-8 0 -14 6t-6 14v259h-323q-20 0 -20 16v70q0 16 20 16h407q18 0 18 -17v-344z" />
    <glyph glyph-name="uni00AD" unicode="&#xad;" horiz-adv-x="321" 
d="M278 276q0 -18 -19 -18h-196q-20 0 -20 18v63q0 8 6 13.5t14 5.5h196q19 0 19 -19v-63z" />
    <glyph glyph-name="registered" unicode="&#xae;" horiz-adv-x="598" 
d="M575 484q0 -114 -81 -194.5t-195 -80.5t-194.5 80.5t-80.5 194.5t80.5 194.5t194.5 80.5t195 -80.5t81 -194.5zM528 484q0 94 -67 161.5t-162 67.5q-94 0 -161 -67t-67 -162q0 -94 66.5 -161t161.5 -67t162 67t67 161zM432 330q0 -11 -11 -11h-51q-7 0 -11 8l-70 118
q-3 5 -10 5h-20h-11v-118q0 -13 -12 -13h-46q-12 0 -12 13v297q0 24 22 27q30 4 84 4q67 0 101.5 -24t34.5 -81v-6q0 -66 -62 -88l72 -123q2 -4 2 -8zM353 549v6q0 24 -15 34.5t-49 10.5h-31h-12v-96q4 0 22.5 -0.5t20.5 -0.5q64 0 64 46z" />
    <glyph glyph-name="macron" unicode="&#xaf;" horiz-adv-x="415" 
d="M383 680q0 -18 -20 -18h-310q-20 0 -20 18v57q0 18 20 18h310q20 0 20 -18v-57z" />
    <glyph glyph-name="degree" unicode="&#xb0;" horiz-adv-x="353" 
d="M326 602q0 -62 -44 -105.5t-105 -43.5t-105 43.5t-44 105.5t44 105.5t105 43.5t105 -43.5t44 -105.5zM256 602q0 32 -23.5 55.5t-55.5 23.5t-55 -23.5t-23 -55.5t23 -55t55 -23t55.5 23t23.5 55z" />
    <glyph glyph-name="plusminus" unicode="&#xb1;" 
d="M548 356q0 -16 -20 -16h-162v-161q0 -20 -16 -20h-70q-16 0 -16 20v161h-161q-20 0 -20 16v70q0 16 20 16h161v162q0 20 16 20h70q16 0 16 -20v-162h162q20 0 20 -16v-70zM548 1q0 -16 -20 -16h-425q-20 0 -20 16v56q0 16 20 16h425q20 0 20 -16v-56z" />
    <glyph glyph-name="two.superior" unicode="&#xb2;" horiz-adv-x="347" 
d="M58 744q49 14 111 14q73 0 106 -25.5t33 -79.5q0 -60 -71 -109l-48 -33q-41 -28 -56.5 -48t-17.5 -49h172q17 0 17 -16v-41q0 -17 -17 -17h-229q-7 0 -12 5t-5 12v53q0 89 85 146l54 36q26 17 36 29.5t10 31.5t-13 26.5t-44 7.5q-42 0 -108 -8q-10 -1 -13.5 4t-3.5 13v32
q0 12 14 16z" />
    <glyph glyph-name="three.superior" unicode="&#xb3;" horiz-adv-x="347" 
d="M304 458q0 -61 -39 -91.5t-103 -30.5q-48 0 -104 13q-16 4 -16 17v33q0 19 18 16q69 -8 102 -8q55 0 55 51v12q0 49 -44 49h-95q-17 0 -17 16v34q0 16 17 16h95q44 0 44 47v9q0 46 -55 46q-26 0 -104 -8q-16 0 -16 16v33q0 12 16 16q53 14 104 14q65 0 103.5 -28
t38.5 -89v-9q0 -55 -41 -80q41 -27 41 -82v-12z" />
    <glyph glyph-name="acute" unicode="&#xb4;" horiz-adv-x="415" 
d="M383 772q0 -4 -4 -8l-118 -124q-12 -13 -24 -13h-86q-9 0 -9 7q0 6 4 10l95 120q12 15 26 15h105q11 0 11 -7z" />
    <glyph glyph-name="mu" unicode="&#xb5;" horiz-adv-x="587" 
d="M527 42q0 -19 -27 -26q-92 -24 -203 -24q-64 0 -103 31v-195q0 -20 -18 -20h-97q-8 0 -13.5 6t-5.5 14v715q0 8 6 14.5t14 6.5h93q8 0 14 -6.5t6 -14.5v-346q0 -96 104 -96q55 0 96 11v431q0 8 6 14.5t14 6.5h93q8 0 14.5 -6.5t6.5 -14.5v-501z" />
    <glyph glyph-name="paragraph" unicode="&#xb6;" horiz-adv-x="644" 
d="M584 -176q0 -8 -5 -13.5t-12 -5.5h-35q-7 0 -12 5.5t-5 13.5v852h-61v-852q0 -8 -5 -13.5t-12 -5.5h-35q-7 0 -12 5.5t-5 13.5v426h-99q-107 0 -174 59t-67 164v47q0 105 67 164t174 59h282q16 0 16 -19v-900z" />
    <glyph glyph-name="periodcentered" unicode="&#xb7;" horiz-adv-x="259" 
d="M194 329q0 -8 -6 -14t-14 -6h-89q-8 0 -14 6t-6 14v113q0 8 6 13.5t14 5.5h89q8 0 14 -5.5t6 -13.5v-113z" />
    <glyph glyph-name="cedilla" unicode="&#xb8;" horiz-adv-x="403" 
d="M296 -41q0 -4 -4 -8l-119 -123q-12 -14 -23 -14h-86q-9 0 -9 7q0 6 4 10l94 120q12 15 26 15h106q11 0 11 -7z" />
    <glyph glyph-name="one.superior" unicode="&#xb9;" horiz-adv-x="254" 
d="M32 720l81 31q6 3 21 3h36q17 0 17 -17v-380q0 -7 -5 -12t-12 -5h-53q-7 0 -12 5t-5 12v307l-56 -19q-21 -7 -21 11v53q0 7 9 11z" />
    <glyph glyph-name="ordmasculine" unicode="&#xba;" horiz-adv-x="357" 
d="M325 557q0 -77 -37.5 -117t-108.5 -40t-108.5 40t-37.5 117v34q0 77 37.5 117t108.5 40t108.5 -40t37.5 -117v-34zM236 557v34q0 43 -13.5 62.5t-43.5 19.5q-58 0 -58 -82v-34q0 -83 58 -83q57 0 57 83z" />
    <glyph glyph-name="guillemotright" unicode="&#xbb;" horiz-adv-x="689" 
d="M649 282q0 -17 -8 -25l-162 -178q-13 -13 -30 -13h-95q-15 0 -15 11q0 4 3 7l181 198l-181 198q-3 3 -3 7q0 11 15 11h95q17 0 30 -13l162 -178q8 -8 8 -25zM362 282q0 -17 -8 -25l-162 -178q-13 -13 -30 -13h-95q-15 0 -15 11q0 4 3 7l181 198l-181 198q-3 3 -3 7
q0 11 15 11h95q17 0 30 -13l162 -178q8 -8 8 -25z" />
    <glyph glyph-name="onequarter" unicode="&#xbc;" horiz-adv-x="709" 
d="M39 720l81 31q6 3 21 3h36q17 0 17 -17v-380q0 -7 -5 -12t-12 -5h-53q-7 0 -12 5t-5 12v307l-56 -19q-21 -7 -21 11v53q0 7 9 11zM600 735q0 -7 -4 -12l-419 -709q-10 -17 -21 -17h-82q-10 0 -10 9q0 7 4 12l419 708q10 17 22 17h81q10 0 10 -8zM679 113q0 -7 -5 -12
t-11 -5h-35v-79q0 -17 -16 -17h-56q-15 0 -15 17v79h-157q-6 0 -11 5t-5 12v44q0 11 8 22l166 223q10 12 20 12h49q7 0 12 -5t5 -12v-229h35q6 0 11 -5t5 -12v-38zM542 168v120l-87 -120h87z" />
    <glyph glyph-name="onehalf" unicode="&#xbd;" horiz-adv-x="751" 
d="M39 720l81 31q6 3 21 3h36q17 0 17 -17v-380q0 -7 -5 -12t-12 -5h-53q-7 0 -12 5t-5 12v307l-56 -19q-21 -7 -21 11v53q0 7 9 11zM600 735q0 -7 -4 -12l-419 -709q-10 -17 -21 -17h-82q-10 0 -10 9q0 7 4 12l419 708q10 17 22 17h81q10 0 10 -8zM721 313q0 -60 -71 -109
l-48 -33q-37 -25 -54.5 -47t-19.5 -50h172q17 0 17 -16v-41q0 -7 -5 -12t-12 -5h-229q-7 0 -12 5t-5 12v53q0 43 24.5 82.5t60.5 63.5l54 36q26 17 36 29.5t10 31.5t-13 26.5t-44 7.5q-42 0 -108 -8q-7 0 -12 5t-5 12v32q0 12 15 16h-1q49 14 111 14q73 0 106 -25.5
t33 -79.5z" />
    <glyph glyph-name="threequarters" unicode="&#xbe;" horiz-adv-x="770" 
d="M661 735q0 -7 -4 -12l-419 -709q-10 -17 -21 -17h-82q-10 0 -10 9q0 7 4 12l419 708q10 17 22 17h81q10 0 10 -8zM740 113q0 -7 -5 -12t-11 -5h-35v-79q0 -17 -16 -17h-56q-15 0 -15 17v79h-157q-6 0 -11 5t-5 12v44q0 11 8 22l166 223q10 12 20 12h49q7 0 12 -5t5 -12
v-229h35q6 0 11 -5t5 -12v-38zM603 168v120l-87 -120h87zM292 458q0 -61 -39 -91.5t-103 -30.5q-48 0 -104 13q-16 4 -16 17v33q0 16 18 16q69 -8 102 -8q55 0 55 51v12q0 49 -44 49h-95q-17 0 -17 16v34q0 16 17 16h95q44 0 44 47v9q0 46 -55 46q-26 0 -104 -8
q-16 0 -16 16v33q0 12 16 16q52 14 104 14q65 0 103.5 -28t38.5 -89v-9q0 -55 -41 -80q41 -27 41 -82v-12z" />
    <glyph glyph-name="questiondown" unicode="&#xbf;" horiz-adv-x="437" 
d="M334 432q0 -8 -6 -14t-14 -6h-90q-8 0 -14 6t-6 14v113q0 8 6 13.5t14 5.5h90q8 0 14 -5.5t6 -13.5v-113zM407 -144q0 -14 -3 -19.5t-15 -8.5q-69 -18 -153 -18q-103 0 -154.5 35t-51.5 121v16q0 22 3.5 39t20 47.5t47.5 67.5l61 72q3 3 11 12.5t10 12.5t8 10.5t7.5 11.5
t4.5 10.5t4 12t1 12.5v38q0 8 6 13.5t14 5.5h83q19 0 19 -19v-38q0 -47 -12 -76.5t-47 -70.5l-64 -74q-29 -34 -29 -87v-16q0 -21 13 -29t45 -8q53 0 150 11h4q17 0 17 -22v-62z" />
    <glyph glyph-name="Agrave" unicode="&#xc0;" horiz-adv-x="646" 
d="M627 17q0 -17 -18 -17h-106q-15 0 -19 17l-46 190h-230l-46 -190q-4 -17 -19 -17h-106q-18 0 -18 17l1 2v3l164 627q26 102 139 102t139 -102l164 -627v-3zM411 321l-72 297q-4 16 -16 16t-16 -16l-72 -297h176zM434 801q0 -7 -9 -7h-86q-11 0 -23 13l-119 124q-4 4 -4 8
q0 7 11 7h106q14 0 26 -15l94 -120q4 -4 4 -10z" />
    <glyph glyph-name="Aacute" unicode="&#xc1;" horiz-adv-x="646" 
d="M627 17q0 -17 -18 -17h-106q-15 0 -19 17l-46 190h-230l-46 -190q-4 -17 -19 -17h-106q-18 0 -18 17l1 2v3l164 627q26 102 139 102t139 -102l164 -627v-3zM411 321l-72 297q-4 16 -16 16t-16 -16l-72 -297h176zM491 939q0 -4 -4 -8l-118 -124q-12 -13 -24 -13h-86
q-9 0 -9 7q0 6 4 10l95 120q12 15 26 15h105q11 0 11 -7z" />
    <glyph glyph-name="Acircumflex" unicode="&#xc2;" horiz-adv-x="646" 
d="M627 17q0 -17 -18 -17h-106q-15 0 -19 17l-46 190h-230l-46 -190q-4 -17 -19 -17h-106q-18 0 -18 17l1 2v3l164 627q26 102 139 102t139 -102l164 -627v-3zM411 321l-72 297q-4 16 -16 16t-16 -16l-72 -297h176zM509 801q0 -7 -9 -7h-83q-11 0 -23 13l-71 81l-71 -81
q-12 -13 -24 -13h-83q-9 0 -9 7q0 6 4 10l92 120q12 15 26 15h130q14 0 26 -15l91 -120q4 -4 4 -10z" />
    <glyph glyph-name="Atilde" unicode="&#xc3;" horiz-adv-x="646" 
d="M627 17q0 -17 -18 -17h-106q-15 0 -19 17l-46 190h-230l-46 -190q-4 -17 -19 -17h-106q-18 0 -18 17l1 2v3l164 627q26 102 139 102t139 -102l164 -627v-3zM411 321l-72 297q-4 16 -16 16t-16 -16l-72 -297h176zM531 900q0 -112 -111 -112q-39 0 -70 23l-44 33
q-27 21 -42 21q-28 0 -28 -34v-21q0 -16 -14 -16h-57q-14 0 -14 16v21q0 112 112 112q40 0 69 -22l44 -33q26 -20 42 -20q28 0 28 33v21q0 16 14 16h57q14 0 14 -16v-22z" />
    <glyph glyph-name="Adieresis" unicode="&#xc4;" horiz-adv-x="646" 
d="M627 17q0 -17 -18 -17h-106q-15 0 -19 17l-46 190h-230l-46 -190q-4 -17 -19 -17h-106q-18 0 -18 17l1 2v3l164 627q26 102 139 102t139 -102l164 -627v-3zM411 321l-72 297q-4 16 -16 16t-16 -16l-72 -297h176zM479 824q0 -8 -6.5 -14t-14.5 -6h-72q-8 0 -14.5 6
t-6.5 14v88q0 8 6.5 14t14.5 6h72q8 0 14.5 -6t6.5 -14v-88zM279 824q0 -8 -6.5 -14t-14.5 -6h-72q-8 0 -14.5 6t-6.5 14v88q0 8 6.5 14t14.5 6h72q8 0 14.5 -6t6.5 -14v-88z" />
    <glyph glyph-name="Aring" unicode="&#xc5;" horiz-adv-x="646" 
d="M627 17q0 -17 -18 -17h-106q-15 0 -19 17l-46 190h-230l-46 -190q-4 -17 -19 -17h-106q-18 0 -18 17l1 2v3l164 627q26 102 139 102t139 -102l164 -627v-3zM411 321l-72 297q-4 16 -16 16t-16 -16l-72 -297h176zM432 889q0 -46 -32 -78t-78 -32t-78.5 32t-32.5 78
t32.5 78.5t78.5 32.5t78 -32.5t32 -78.5zM370 890q0 19 -14 33t-34 14q-19 0 -32.5 -13.5t-13.5 -33.5t13.5 -34t32.5 -14q20 0 34 14t14 34z" />
    <glyph glyph-name="AE" unicode="&#xc6;" horiz-adv-x="880" 
d="M820 27q0 -10 -4 -14.5t-16 -6.5q-64 -14 -160 -14q-53 0 -91.5 8.5t-72 30t-50.5 63t-17 103.5v10h-201l-46 -190q-4 -17 -19 -17h-106q-18 0 -18 17l1 2v3l164 627q8 33 24.5 53.5t39 28.5t37.5 10t38 2h477q20 0 20 -21v-70q0 -8 -6 -14t-14 -6h-253v-194h241
q8 0 14 -6t6 -14v-72q0 -8 -6 -14t-14 -6h-241v-129q0 -49 17.5 -67.5t61.5 -18.5h174q8 0 14 -6t6 -14v-64zM409 321v313h-86q-12 0 -16 -16l-72 -297h174z" />
    <glyph glyph-name="Ccedilla" unicode="&#xc7;" horiz-adv-x="563" 
d="M518 31q0 -16 -22 -23q-60 -16 -158 -16q-39 0 -75.5 8t-75.5 29t-67.5 54t-46.5 88.5t-18 126.5v147q0 72 18 128t46.5 88.5t67.5 53.5t75.5 28.5t75.5 7.5q98 0 158 -16q22 -7 22 -23v-67q0 -21 -19 -21h-3q-93 8 -156 8q-145 0 -145 -187v-147q0 -187 145 -187
q63 0 156 8h3q19 0 19 -21v-67zM420 -41q0 -3 -5 -8l-119 -123q-12 -14 -23 -14h-86q-9 0 -9 7q0 4 4 10l94 120q12 15 26 15h106q12 0 12 -7z" />
    <glyph glyph-name="Egrave" unicode="&#xc8;" horiz-adv-x="576" 
d="M516 27q0 -10 -4.5 -14.5t-15.5 -6.5q-90 -14 -190 -14q-53 0 -91.5 8.5t-72 30t-50.5 63t-17 103.5v349q0 62 17 103.5t50.5 63t72 30t91.5 8.5q100 0 190 -14q11 -2 15.5 -6.5t4.5 -14.5v-64q0 -8 -6 -14t-14 -6h-204q-44 0 -61.5 -18.5t-17.5 -67.5v-108h271
q8 0 14 -6t6 -14v-72q0 -8 -6 -14t-14 -6h-271v-129q0 -49 17.5 -67.5t61.5 -18.5h204q8 0 14 -6t6 -14v-64zM403 801q0 -7 -9 -7h-86q-11 0 -23 13l-119 124q-4 4 -4 8q0 7 11 7h106q14 0 26 -15l94 -120q4 -4 4 -10z" />
    <glyph glyph-name="Eacute" unicode="&#xc9;" horiz-adv-x="576" 
d="M516 27q0 -10 -4.5 -14.5t-15.5 -6.5q-90 -14 -190 -14q-53 0 -91.5 8.5t-72 30t-50.5 63t-17 103.5v349q0 62 17 103.5t50.5 63t72 30t91.5 8.5q100 0 190 -14q11 -2 15.5 -6.5t4.5 -14.5v-64q0 -8 -6 -14t-14 -6h-204q-44 0 -61.5 -18.5t-17.5 -67.5v-108h271
q8 0 14 -6t6 -14v-72q0 -8 -6 -14t-14 -6h-271v-129q0 -49 17.5 -67.5t61.5 -18.5h204q8 0 14 -6t6 -14v-64zM454 939q0 -4 -4 -8l-118 -124q-12 -13 -24 -13h-86q-9 0 -9 7q0 6 4 10l95 120q12 15 26 15h105q11 0 11 -7z" />
    <glyph glyph-name="Ecircumflex" unicode="&#xca;" horiz-adv-x="576" 
d="M516 27q0 -10 -4.5 -14.5t-15.5 -6.5q-90 -14 -190 -14q-53 0 -91.5 8.5t-72 30t-50.5 63t-17 103.5v349q0 62 17 103.5t50.5 63t72 30t91.5 8.5q100 0 190 -14q11 -2 15.5 -6.5t4.5 -14.5v-64q0 -8 -6 -14t-14 -6h-204q-44 0 -61.5 -18.5t-17.5 -67.5v-108h271
q8 0 14 -6t6 -14v-72q0 -8 -6 -14t-14 -6h-271v-129q0 -49 17.5 -67.5t61.5 -18.5h204q8 0 14 -6t6 -14v-64zM484 802q0 -7 -9 -7h-83q-11 0 -23 13l-71 81l-71 -81q-12 -13 -24 -13h-83q-9 0 -9 7q0 6 4 10l92 120q12 15 26 15h130q14 0 26 -15l91 -120q4 -4 4 -10z" />
    <glyph glyph-name="Edieresis" unicode="&#xcb;" horiz-adv-x="576" 
d="M516 27q0 -10 -4.5 -14.5t-15.5 -6.5q-90 -14 -190 -14q-53 0 -91.5 8.5t-72 30t-50.5 63t-17 103.5v349q0 62 17 103.5t50.5 63t72 30t91.5 8.5q100 0 190 -14q11 -2 15.5 -6.5t4.5 -14.5v-64q0 -8 -6 -14t-14 -6h-204q-44 0 -61.5 -18.5t-17.5 -67.5v-108h271
q8 0 14 -6t6 -14v-72q0 -8 -6 -14t-14 -6h-271v-129q0 -49 17.5 -67.5t61.5 -18.5h204q8 0 14 -6t6 -14v-64zM448 824q0 -8 -6.5 -14t-14.5 -6h-72q-8 0 -14.5 6t-6.5 14v88q0 8 6.5 14t14.5 6h72q8 0 14.5 -6t6.5 -14v-88zM248 824q0 -8 -6.5 -14t-14.5 -6h-72
q-8 0 -14.5 6t-6.5 14v88q0 8 6.5 14t14.5 6h72q8 0 14.5 -6t6.5 -14v-88z" />
    <glyph glyph-name="Igrave" unicode="&#xcc;" horiz-adv-x="289" 
d="M214 20q0 -8 -6 -14t-14 -6h-99q-8 0 -14 6t-6 14v704q0 8 6 13.5t14 5.5h99q8 0 14 -5.5t6 -13.5v-704zM231 801q0 -7 -9 -7h-86q-11 0 -23 13l-119 124q-4 4 -4 8q0 7 11 7h106q14 0 26 -15l94 -120q4 -4 4 -10z" />
    <glyph glyph-name="Iacute" unicode="&#xcd;" horiz-adv-x="289" 
d="M214 20q0 -8 -6 -14t-14 -6h-99q-8 0 -14 6t-6 14v704q0 8 6 13.5t14 5.5h99q8 0 14 -5.5t6 -13.5v-704zM303 939q0 -4 -4 -8l-118 -124q-12 -13 -24 -13h-86q-9 0 -9 7q0 6 4 10l95 120q12 15 26 15h105q11 0 11 -7z" />
    <glyph glyph-name="Icircumflex" unicode="&#xce;" horiz-adv-x="289" 
d="M214 20q0 -8 -6 -14t-14 -6h-99q-8 0 -14 6t-6 14v704q0 8 6 13.5t14 5.5h99q8 0 14 -5.5t6 -13.5v-704zM332 801q0 -7 -9 -7h-83q-11 0 -23 13l-71 81l-71 -81q-12 -13 -24 -13h-83q-9 0 -9 7q0 6 4 10l92 120q12 15 26 15h130q14 0 26 -15l91 -120q4 -4 4 -10z" />
    <glyph glyph-name="Idieresis" unicode="&#xcf;" horiz-adv-x="289" 
d="M214 20q0 -8 -6 -14t-14 -6h-99q-8 0 -14 6t-6 14v704q0 8 6 13.5t14 5.5h99q8 0 14 -5.5t6 -13.5v-704zM301 824q0 -8 -6.5 -14t-14.5 -6h-72q-8 0 -14.5 6t-6.5 14v88q0 8 6.5 14t14.5 6h72q8 0 14.5 -6t6.5 -14v-88zM101 824q0 -8 -6.5 -14t-14.5 -6h-72q-8 0 -14.5 6
t-6.5 14v88q0 8 6.5 14t14.5 6h72q8 0 14.5 -6t6.5 -14v-88z" />
    <glyph glyph-name="Eth" unicode="&#xd0;" horiz-adv-x="667" 
d="M612 298q0 -148 -81.5 -227t-232.5 -79q-125 0 -197 12q-26 5 -26 31v291h-58q-19 0 -19 19v75q0 18 19 18h58v270q0 26 26 31q72 12 197 12q151 0 232.5 -79t81.5 -227v-147zM474 298v147q0 105 -46.5 147t-129.5 42q-21 0 -84 -3v-193h71q19 0 19 -18v-75
q0 -19 -19 -19h-71v-214q63 -3 84 -3q83 0 129.5 42t46.5 147z" />
    <glyph glyph-name="Ntilde" unicode="&#xd1;" horiz-adv-x="712" 
d="M637 40q0 -16 -11.5 -28t-28.5 -12h-101q-16 0 -24 1t-18.5 9.5t-18.5 25.5l-222 487q-4 8 -9 8t-5 -8v-503q0 -8 -5.5 -14t-13.5 -6h-85q-8 0 -14 6t-6 14v683q0 17 11.5 28.5t28.5 11.5h108q16 0 25.5 -6.5t18.5 -25.5l233 -514q3 -8 8 -8t5 9v526q0 19 19 19h86
q19 0 19 -19v-684zM539 900q0 -112 -111 -112q-39 0 -70 23l-44 33q-27 21 -42 21q-28 0 -28 -34v-21q0 -16 -14 -16h-57q-14 0 -14 16v21q0 112 112 112q40 0 69 -22l44 -33q26 -20 42 -20q28 0 28 33v21q0 16 14 16h57q14 0 14 -16v-22z" />
    <glyph glyph-name="Ograve" unicode="&#xd2;" horiz-adv-x="680" 
d="M625 304q0 -158 -77 -235t-208 -77t-208 77t-77 235v135q0 158 77 235t208 77t208 -77t77 -235v-135zM485 304v135q0 98 -35.5 144.5t-109.5 46.5t-109.5 -46.5t-35.5 -144.5v-135q0 -98 35.5 -144.5t109.5 -46.5t109.5 46.5t35.5 144.5zM426 801q0 -7 -9 -7h-86
q-11 0 -23 13l-119 124q-4 4 -4 8q0 7 11 7h106q14 0 26 -15l94 -120q4 -4 4 -10z" />
    <glyph glyph-name="Oacute" unicode="&#xd3;" horiz-adv-x="680" 
d="M625 304q0 -158 -77 -235t-208 -77t-208 77t-77 235v135q0 158 77 235t208 77t208 -77t77 -235v-135zM485 304v135q0 98 -35.5 144.5t-109.5 46.5t-109.5 -46.5t-35.5 -144.5v-135q0 -98 35.5 -144.5t109.5 -46.5t109.5 46.5t35.5 144.5zM488 939q0 -4 -4 -8l-118 -124
q-12 -13 -24 -13h-86q-9 0 -9 7q0 6 4 10l95 120q12 15 26 15h105q11 0 11 -7z" />
    <glyph glyph-name="Ocircumflex" unicode="&#xd4;" horiz-adv-x="680" 
d="M625 304q0 -158 -77 -235t-208 -77t-208 77t-77 235v135q0 158 77 235t208 77t208 -77t77 -235v-135zM485 304v135q0 98 -35.5 144.5t-109.5 46.5t-109.5 -46.5t-35.5 -144.5v-135q0 -98 35.5 -144.5t109.5 -46.5t109.5 46.5t35.5 144.5zM524 802q0 -7 -9 -7h-83
q-11 0 -23 13l-71 81l-71 -81q-12 -13 -24 -13h-83q-9 0 -9 7q0 6 4 10l92 120q12 15 26 15h130q14 0 26 -15l91 -120q4 -4 4 -10z" />
    <glyph glyph-name="Otilde" unicode="&#xd5;" horiz-adv-x="680" 
d="M625 304q0 -158 -77 -235t-208 -77t-208 77t-77 235v135q0 158 77 235t208 77t208 -77t77 -235v-135zM485 304v135q0 98 -35.5 144.5t-109.5 46.5t-109.5 -46.5t-35.5 -144.5v-135q0 -98 35.5 -144.5t109.5 -46.5t109.5 46.5t35.5 144.5zM535 901q0 -112 -111 -112
q-39 0 -70 23l-44 33q-27 21 -42 21q-28 0 -28 -34v-21q0 -16 -14 -16h-57q-14 0 -14 16v21q0 112 112 112q40 0 69 -22l44 -33q26 -20 42 -20q28 0 28 33v21q0 16 14 16h57q14 0 14 -16v-22z" />
    <glyph glyph-name="Odieresis" unicode="&#xd6;" horiz-adv-x="680" 
d="M625 304q0 -158 -77 -235t-208 -77t-208 77t-77 235v135q0 158 77 235t208 77t208 -77t77 -235v-135zM485 304v135q0 98 -35.5 144.5t-109.5 46.5t-109.5 -46.5t-35.5 -144.5v-135q0 -98 35.5 -144.5t109.5 -46.5t109.5 46.5t35.5 144.5zM491 824q0 -8 -6.5 -14t-14.5 -6
h-72q-8 0 -14.5 6t-6.5 14v88q0 8 6.5 14t14.5 6h72q8 0 14.5 -6t6.5 -14v-88zM291 824q0 -8 -6.5 -14t-14.5 -6h-72q-8 0 -14.5 6t-6.5 14v88q0 8 6.5 14t14.5 6h72q8 0 14.5 -6t6.5 -14v-88z" />
    <glyph glyph-name="multiply" unicode="&#xd7;" 
d="M520 531q0 -8 -8 -16l-125 -125l125 -124q7 -7 7 -15q0 -6 -5 -11l-49 -49q-5 -5 -10 -5q-7 0 -15 8l-125 124l-124 -124q-8 -8 -16 -8q-5 0 -10 5l-49 49q-5 5 -5 10q0 8 8 16l124 124l-125 125q-8 8 -8 16q0 5 5 10l49 49q5 5 10 5q8 0 16 -8l125 -125l125 125
q8 8 16 8q5 0 10 -5l49 -49q5 -5 5 -10z" />
    <glyph glyph-name="Oslash" unicode="&#xd8;" horiz-adv-x="680" 
d="M656 737q0 -3 -3 -8l-72 -100q44 -75 44 -190v-135q0 -158 -77 -235t-208 -77q-110 0 -179 52l-29 -40q-9 -12 -20 -12h-76q-11 0 -11 11q0 3 3 8l72 100q-45 74 -45 193v135q0 158 77 235t208 77q112 0 182 -54l29 41q7 10 19 10h75q11 0 11 -11zM444 590
q-36 40 -104 40q-74 0 -109.5 -46.5t-35.5 -144.5v-135q0 -31 3 -56zM485 304v135q0 28 -3 52l-244 -340q35 -38 102 -38q74 0 109.5 46.5t35.5 144.5z" />
    <glyph glyph-name="Ugrave" unicode="&#xd9;" horiz-adv-x="690" 
d="M620 275q0 -283 -275 -283t-275 283v449q0 8 6 13.5t14 5.5h99q8 0 14 -5.5t6 -13.5v-449q0 -90 29 -129t107 -39t107 39t29 129v449q0 8 6 13.5t14 5.5h99q8 0 14 -5.5t6 -13.5v-449zM424 801q0 -7 -9 -7h-86q-11 0 -23 13l-119 124q-4 4 -4 8q0 7 11 7h106q14 0 26 -15
l94 -120q4 -4 4 -10z" />
    <glyph glyph-name="Uacute" unicode="&#xda;" horiz-adv-x="690" 
d="M620 275q0 -283 -275 -283t-275 283v449q0 8 6 13.5t14 5.5h99q8 0 14 -5.5t6 -13.5v-449q0 -90 29 -129t107 -39t107 39t29 129v449q0 8 6 13.5t14 5.5h99q8 0 14 -5.5t6 -13.5v-449zM512 939q0 -4 -4 -8l-118 -124q-12 -13 -24 -13h-86q-9 0 -9 7q0 6 4 10l95 120
q12 15 26 15h105q11 0 11 -7z" />
    <glyph glyph-name="Ucircumflex" unicode="&#xdb;" horiz-adv-x="690" 
d="M620 275q0 -283 -275 -283t-275 283v449q0 8 6 13.5t14 5.5h99q8 0 14 -5.5t6 -13.5v-449q0 -90 29 -129t107 -39t107 39t29 129v449q0 8 6 13.5t14 5.5h99q8 0 14 -5.5t6 -13.5v-449zM531 801q0 -7 -9 -7h-83q-11 0 -23 13l-71 81l-71 -81q-12 -13 -24 -13h-83
q-9 0 -9 7q0 6 4 10l92 120q12 15 26 15h130q14 0 26 -15l91 -120q4 -4 4 -10z" />
    <glyph glyph-name="Udieresis" unicode="&#xdc;" horiz-adv-x="690" 
d="M620 275q0 -283 -275 -283t-275 283v449q0 8 6 13.5t14 5.5h99q8 0 14 -5.5t6 -13.5v-449q0 -90 29 -129t107 -39t107 39t29 129v449q0 8 6 13.5t14 5.5h99q8 0 14 -5.5t6 -13.5v-449zM503 824q0 -8 -6.5 -14t-14.5 -6h-72q-8 0 -14.5 6t-6.5 14v88q0 8 6.5 14t14.5 6h72
q8 0 14.5 -6t6.5 -14v-88zM303 824q0 -8 -6.5 -14t-14.5 -6h-72q-8 0 -14.5 6t-6.5 14v88q0 8 6.5 14t14.5 6h72q8 0 14.5 -6t6.5 -14v-88z" />
    <glyph glyph-name="Yacute" unicode="&#xdd;" horiz-adv-x="615" 
d="M590 728q0 -2 -2 -8l-152 -347q-25 -58 -61 -73v-280q0 -8 -5.5 -14t-13.5 -6h-100q-8 0 -13.5 6t-5.5 14v280q-36 15 -61 73l-151 347q-2 6 -2 8q0 15 16 15h111q13 0 19 -16l120 -298q8 -20 17 -20q10 0 18 20l120 298q6 16 19 16h110q17 0 17 -15zM481 939q0 -4 -4 -8
l-118 -124q-12 -13 -24 -13h-86q-9 0 -9 7q0 6 4 10l95 120q12 15 26 15h105q11 0 11 -7z" />
    <glyph glyph-name="Thorn" unicode="&#xde;" horiz-adv-x="626" 
d="M591 419q0 -66 -23.5 -113.5t-65 -74t-92 -38.5t-111.5 -12q-2 0 -86 3v-164q0 -20 -18 -20h-101q-8 0 -13.5 6t-5.5 14v704q0 19 19 19h101q18 0 18 -19v-63q34 2 83 2q62 0 113 -11.5t93 -37.5t65.5 -72.5t23.5 -110.5v-12zM452 419v12q0 62 -37.5 88t-115.5 26
q-56 0 -86 -2v-242q30 -2 86 -2q78 0 115.5 28.5t37.5 91.5z" />
    <glyph glyph-name="germandbls" unicode="&#xdf;" horiz-adv-x="624" 
d="M570 221q0 -113 -68.5 -171t-172.5 -58q-21 0 -56 5q-20 4 -20 19v74q0 15 17 15q32 0 52.5 1.5t44 8t37.5 18.5t23 34.5t9 53.5v19q0 46 -32 74.5t-95 28.5h-32q-20 0 -20 18v62q0 18 20 18h32q60 0 88 27.5t28 69.5v17q0 45 -27 71.5t-84 26.5q-70 0 -95 -37t-25 -100
v-495q0 -8 -5.5 -14.5t-13.5 -6.5h-95q-8 0 -14 6.5t-6 14.5v494q0 253 254 253q112 0 177.5 -51.5t65.5 -161.5v-17q0 -44 -26 -82.5t-67 -59.5q49 -21 77.5 -62t28.5 -94v-19z" />
    <glyph glyph-name="agrave" unicode="&#xe0;" horiz-adv-x="548" 
d="M483 20q0 -8 -6 -14t-14 -6h-85q-8 0 -14 6t-6 14v16q-72 -44 -141 -44q-74 0 -123.5 37.5t-49.5 129.5v4q0 87 58 130t186 43h63v44q0 47 -20.5 64t-67.5 17q-97 0 -163 -8h-5q-18 0 -18 17v64q0 17 19 21q80 16 167 16q220 0 220 -191v-360zM351 125v123h-63
q-65 0 -88 -20t-23 -65v-4q0 -36 16.5 -49t55.5 -13q51 0 102 28zM351 634q0 -7 -9 -7h-86q-11 0 -23 13l-119 124q-4 4 -4 8q0 7 11 7h106q14 0 26 -15l94 -120q4 -4 4 -10z" />
    <glyph glyph-name="aacute" unicode="&#xe1;" horiz-adv-x="548" 
d="M483 20q0 -8 -6 -14t-14 -6h-85q-8 0 -14 6t-6 14v16q-72 -44 -141 -44q-74 0 -123.5 37.5t-49.5 129.5v4q0 87 58 130t186 43h63v44q0 47 -20.5 64t-67.5 17q-97 0 -163 -8h-5q-18 0 -18 17v64q0 17 19 21q80 16 167 16q220 0 220 -191v-360zM351 125v123h-63
q-65 0 -88 -20t-23 -65v-4q0 -36 16.5 -49t55.5 -13q51 0 102 28zM439 772q0 -4 -4 -8l-118 -124q-12 -13 -24 -13h-86q-9 0 -9 7q0 6 4 10l95 120q12 15 26 15h105q11 0 11 -7z" />
    <glyph glyph-name="acircumflex" unicode="&#xe2;" horiz-adv-x="548" 
d="M483 20q0 -8 -6 -14t-14 -6h-85q-8 0 -14 6t-6 14v16q-72 -44 -141 -44q-74 0 -123.5 37.5t-49.5 129.5v4q0 87 58 130t186 43h63v44q0 47 -20.5 64t-67.5 17q-97 0 -163 -8h-5q-18 0 -18 17v64q0 17 19 21q80 16 167 16q220 0 220 -191v-360zM351 125v123h-63
q-65 0 -88 -20t-23 -65v-4q0 -36 16.5 -49t55.5 -13q51 0 102 28zM463 634q0 -7 -9 -7h-83q-11 0 -23 13l-71 81l-71 -81q-12 -13 -24 -13h-83q-9 0 -9 7q0 6 4 10l92 120q12 15 26 15h130q14 0 26 -15l91 -120q4 -4 4 -10z" />
    <glyph glyph-name="atilde" unicode="&#xe3;" horiz-adv-x="548" 
d="M483 20q0 -8 -6 -14t-14 -6h-85q-8 0 -14 6t-6 14v16q-72 -44 -141 -44q-74 0 -123.5 37.5t-49.5 129.5v4q0 87 58 130t186 43h63v44q0 47 -20.5 64t-67.5 17q-97 0 -163 -8h-5q-18 0 -18 17v64q0 17 19 21q80 16 167 16q220 0 220 -191v-360zM351 125v123h-63
q-65 0 -88 -20t-23 -65v-4q0 -36 16.5 -49t55.5 -13q51 0 102 28zM467 739q0 -112 -111 -112q-39 0 -70 23l-44 33q-27 21 -42 21q-28 0 -28 -34v-21q0 -16 -14 -16h-57q-14 0 -14 16v21q0 112 112 112q40 0 69 -22l44 -33q26 -20 42 -20q28 0 28 33v21q0 16 14 16h57
q14 0 14 -16v-22z" />
    <glyph glyph-name="adieresis" unicode="&#xe4;" horiz-adv-x="548" 
d="M483 20q0 -8 -6 -14t-14 -6h-85q-8 0 -14 6t-6 14v16q-72 -44 -141 -44q-74 0 -123.5 37.5t-49.5 129.5v4q0 87 58 130t186 43h63v44q0 47 -20.5 64t-67.5 17q-97 0 -163 -8h-5q-18 0 -18 17v64q0 17 19 21q80 16 167 16q220 0 220 -191v-360zM351 125v123h-63
q-65 0 -88 -20t-23 -65v-4q0 -36 16.5 -49t55.5 -13q51 0 102 28zM433 662q0 -8 -6.5 -14t-14.5 -6h-72q-8 0 -14.5 6t-6.5 14v88q0 8 6.5 14t14.5 6h72q8 0 14.5 -6t6.5 -14v-88zM233 662q0 -8 -6.5 -14t-14.5 -6h-72q-8 0 -14.5 6t-6.5 14v88q0 8 6.5 14t14.5 6h72
q8 0 14.5 -6t6.5 -14v-88z" />
    <glyph glyph-name="aring" unicode="&#xe5;" horiz-adv-x="548" 
d="M483 20q0 -8 -6 -14t-14 -6h-85q-8 0 -14 6t-6 14v16q-72 -44 -141 -44q-74 0 -123.5 37.5t-49.5 129.5v4q0 87 58 130t186 43h63v44q0 47 -20.5 64t-67.5 17q-97 0 -163 -8h-5q-18 0 -18 17v64q0 17 19 21q80 16 167 16q220 0 220 -191v-360zM351 125v123h-63
q-65 0 -88 -20t-23 -65v-4q0 -36 16.5 -49t55.5 -13q51 0 102 28zM385 731q0 -46 -32 -78t-78 -32t-78.5 32t-32.5 78t32.5 78.5t78.5 32.5t78 -32.5t32 -78.5zM323 732q0 19 -14 33t-34 14q-19 0 -32.5 -13.5t-13.5 -33.5t13.5 -34t32.5 -14t33.5 14t14.5 34z" />
    <glyph glyph-name="ae" unicode="&#xe6;" horiz-adv-x="870" 
d="M819 268q0 -8 -6.5 -14t-14.5 -6h-314v-41q0 -56 31.5 -80t99.5 -24q77 0 165 9h1h3q17 0 17 -16v-56q0 -19 -19 -24q-85 -24 -188 -24q-106 0 -158 54q-74 -54 -184 -54q-92 0 -149 43.5t-57 132.5v11q0 83 63 120t192 37h51v27q0 53 -22.5 75t-69.5 22q-103 0 -157 -6
h-1h-2q-17 0 -17 17v60q0 18 20 23q77 17 157 17q113 0 168 -66q60 66 161 66q116 0 173 -64t57 -173v-66zM691 324v34q0 48 -25 79t-78 31q-52 0 -78 -31.5t-26 -78.5v-34h207zM356 109v152h-55q-68 0 -98 -18.5t-30 -63.5v-11q0 -42 22.5 -57.5t66.5 -15.5q58 0 94 14z
" />
    <glyph glyph-name="ccedilla" unicode="&#xe7;" horiz-adv-x="468" 
d="M423 31q0 -12 -4 -17.5t-17 -8.5q-50 -13 -129 -13q-102 0 -165 62.5t-63 180.5v93q0 118 63 180.5t165 62.5q79 0 129 -13q13 -3 17 -8.5t4 -17.5v-65q0 -15 -18 -15h-3q-56 7 -129 7q-41 0 -68.5 -30t-27.5 -101v-93q0 -71 27.5 -101t68.5 -30q73 0 129 7h3
q18 0 18 -15v-65zM336 -41q0 -4 -4 -8l-119 -123q-12 -14 -23 -14h-86q-9 0 -9 7q0 6 4 10l94 120q12 15 26 15h106q11 0 11 -7z" />
    <glyph glyph-name="egrave" unicode="&#xe8;" horiz-adv-x="574" 
d="M526 261q0 -25 -20 -25h-326v-3q0 -53 27.5 -90t92.5 -37q79 0 184 10h3q18 0 18 -15v-66q0 -23 -21 -26q-92 -17 -194 -17q-41 0 -80.5 12t-77.5 39t-61 78.5t-23 121.5v74q0 118 63 186t177 68q113 0 175.5 -69.5t62.5 -184.5v-56zM393 330v4q0 58 -29 90.5t-76 32.5
q-48 0 -77.5 -32.5t-29.5 -90.5v-4h212zM352 634q0 -7 -9 -7h-86q-11 0 -23 13l-119 124q-4 4 -4 8q0 7 11 7h106q14 0 26 -15l94 -120q4 -4 4 -10z" />
    <glyph glyph-name="eacute" unicode="&#xe9;" horiz-adv-x="574" 
d="M526 261q0 -25 -20 -25h-326v-3q0 -53 27.5 -90t92.5 -37q79 0 184 10h3q18 0 18 -15v-66q0 -23 -21 -26q-92 -17 -194 -17q-41 0 -80.5 12t-77.5 39t-61 78.5t-23 121.5v74q0 118 63 186t177 68q113 0 175.5 -69.5t62.5 -184.5v-56zM393 330v4q0 58 -29 90.5t-76 32.5
q-48 0 -77.5 -32.5t-29.5 -90.5v-4h212zM456 772q0 -4 -4 -8l-118 -124q-12 -13 -24 -13h-86q-9 0 -9 7q0 6 4 10l95 120q12 15 26 15h105q11 0 11 -7z" />
    <glyph glyph-name="ecircumflex" unicode="&#xea;" horiz-adv-x="574" 
d="M526 261q0 -25 -20 -25h-326v-3q0 -53 27.5 -90t92.5 -37q79 0 184 10h3q18 0 18 -15v-66q0 -23 -21 -26q-92 -17 -194 -17q-41 0 -80.5 12t-77.5 39t-61 78.5t-23 121.5v74q0 118 63 186t177 68q113 0 175.5 -69.5t62.5 -184.5v-56zM393 330v4q0 58 -29 90.5t-76 32.5
q-48 0 -77.5 -32.5t-29.5 -90.5v-4h212zM473 634q0 -7 -9 -7h-83q-11 0 -23 13l-71 81l-71 -81q-12 -13 -24 -13h-83q-9 0 -9 7q0 6 4 10l92 120q12 15 26 15h130q14 0 26 -15l91 -120q4 -4 4 -10z" />
    <glyph glyph-name="edieresis" unicode="&#xeb;" horiz-adv-x="574" 
d="M526 261q0 -25 -20 -25h-326v-3q0 -53 27.5 -90t92.5 -37q79 0 184 10h3q18 0 18 -15v-66q0 -23 -21 -26q-92 -17 -194 -17q-41 0 -80.5 12t-77.5 39t-61 78.5t-23 121.5v74q0 118 63 186t177 68q113 0 175.5 -69.5t62.5 -184.5v-56zM393 330v4q0 58 -29 90.5t-76 32.5
q-48 0 -77.5 -32.5t-29.5 -90.5v-4h212zM443 659q0 -8 -6.5 -14t-14.5 -6h-72q-8 0 -14.5 6t-6.5 14v88q0 8 6.5 14t14.5 6h72q8 0 14.5 -6t6.5 -14v-88zM243 659q0 -8 -6.5 -14t-14.5 -6h-72q-8 0 -14.5 6t-6.5 14v88q0 8 6.5 14t14.5 6h72q8 0 14.5 -6t6.5 -14v-88z" />
    <glyph glyph-name="igrave" unicode="&#xec;" horiz-adv-x="268" 
d="M212 634q0 -7 -9 -7h-86q-10 0 -23 13l-119 124q-4 4 -4 8q0 7 11 7h106q14 0 26 -15l94 -120q4 -4 4 -10zM200 21q0 -8 -6 -14.5t-14 -6.5h-92q-8 0 -14 6.5t-6 14.5v523q0 8 6 14t14 6h92q8 0 14 -6t6 -14v-523z" />
    <glyph glyph-name="iacute" unicode="&#xed;" horiz-adv-x="268" 
d="M302 772q0 -4 -4 -8l-118 -124q-12 -13 -24 -13h-86q-9 0 -9 7q0 6 4 10l95 120q12 15 26 15h105q11 0 11 -7zM200 21h1q0 -8 -6 -14.5t-14 -6.5h-92q-8 0 -14.5 6.5t-6.5 14.5v523q0 8 6 14t14 6h92q8 0 14 -6t6 -14v-523z" />
    <glyph glyph-name="icircumflex" unicode="&#xee;" horiz-adv-x="268" 
d="M200 21q0 -8 -6 -14.5t-14 -6.5h-92q-8 0 -14 6.5t-6 14.5v523q0 8 6 14t14 6h92q8 0 14 -6t6 -14v-523zM321 634q0 -7 -9 -7h-83q-11 0 -23 13l-71 81l-71 -81q-12 -13 -24 -13h-83q-9 0 -9 7q0 6 4 10l92 120q12 15 26 15h130q14 0 26 -15l91 -120q4 -4 4 -10z" />
    <glyph glyph-name="idieresis" unicode="&#xef;" horiz-adv-x="268" 
d="M200 21q0 -8 -6 -14.5t-14 -6.5h-92q-8 0 -14 6.5t-6 14.5v523q0 8 6 14t14 6h92q8 0 14 -6t6 -14v-523zM291 659q0 -8 -6.5 -14t-14.5 -6h-72q-8 0 -14.5 6t-6.5 14v88q0 8 6.5 14t14.5 6h72q8 0 14.5 -6t6.5 -14v-88zM91 659q0 -8 -6.5 -14t-14.5 -6h-72q-8 0 -14.5 6
t-6.5 14v88q0 8 6.5 14t14.5 6h72q8 0 14.5 -6t6.5 -14v-88z" />
    <glyph glyph-name="eth" unicode="&#xf0;" horiz-adv-x="574" 
d="M526 253q0 -128 -61 -194.5t-177 -66.5q-122 0 -181 68.5t-59 192.5v40q0 128 61.5 194t177.5 66q47 0 73 -14q-31 49 -125 97l-76 -58q-7 -6 -13 -6q-5 0 -11 6l-29 32q-3 3 -3 8q0 9 10 16l45 34q-26 9 -51 15q-16 4 -16 15q0 3 1 5l21 58q4 11 14 11q5 0 8 -1
q65 -16 112 -35l85 65q5 4 13 4t12 -5l29 -31q4 -4 4 -8q0 -6 -10 -14l-59 -45q111 -62 158 -157t47 -252v-40zM393 253v40q0 76 -25 112.5t-81 36.5t-81 -36t-25 -113v-40q0 -76 25.5 -112.5t81.5 -36.5t80.5 36t24.5 113z" />
    <glyph glyph-name="ntilde" unicode="&#xf1;" horiz-adv-x="592" 
d="M527 21q0 -8 -6 -14.5t-14 -6.5h-92q-8 0 -14 6.5t-6 14.5v326q0 69 -14.5 90.5t-70.5 21.5q-44 0 -113 -36v-402q0 -8 -6 -14.5t-14 -6.5h-92q-8 0 -14 6.5t-6 14.5v523q0 8 6 14t14 6h87q8 0 14 -6t6 -14v-21q43 28 77.5 38t84.5 10q52 0 87.5 -16.5t53.5 -48.5
t25 -69.5t7 -89.5v-326zM482 739q0 -112 -111 -112q-39 0 -70 23l-44 33q-27 21 -42 21q-28 0 -28 -34v-21q0 -16 -14 -16h-57q-14 0 -14 16v21q0 112 112 112q40 0 69 -22l44 -33q26 -20 42 -20q28 0 28 33v21q0 16 14 16h57q14 0 14 -16v-22z" />
    <glyph glyph-name="ograve" unicode="&#xf2;" horiz-adv-x="574" 
d="M526 241q0 -111 -62.5 -180t-176.5 -69t-176.5 69t-62.5 180v81q0 111 62.5 180t176.5 69t176.5 -69t62.5 -180v-81zM394 241v81q0 63 -27.5 99t-79.5 36t-79.5 -36t-27.5 -99v-81q0 -63 27.5 -99t79.5 -36t79.5 36t27.5 99zM368 634q0 -7 -9 -7h-86q-11 0 -23 13
l-119 124q-4 4 -4 8q0 7 11 7h106q14 0 26 -15l94 -120q4 -4 4 -10z" />
    <glyph glyph-name="oacute" unicode="&#xf3;" horiz-adv-x="574" 
d="M526 241q0 -111 -62.5 -180t-176.5 -69t-176.5 69t-62.5 180v81q0 111 62.5 180t176.5 69t176.5 -69t62.5 -180v-81zM394 241v81q0 63 -27.5 99t-79.5 36t-79.5 -36t-27.5 -99v-81q0 -63 27.5 -99t79.5 -36t79.5 36t27.5 99zM441 772q0 -4 -4 -8l-118 -124
q-12 -13 -24 -13h-86q-9 0 -9 7q0 6 4 10l95 120q12 15 26 15h105q11 0 11 -7z" />
    <glyph glyph-name="ocircumflex" unicode="&#xf4;" horiz-adv-x="574" 
d="M526 241q0 -111 -62.5 -180t-176.5 -69t-176.5 69t-62.5 180v81q0 111 62.5 180t176.5 69t176.5 -69t62.5 -180v-81zM394 241v81q0 63 -27.5 99t-79.5 36t-79.5 -36t-27.5 -99v-81q0 -63 27.5 -99t79.5 -36t79.5 36t27.5 99zM472 634q0 -7 -9 -7h-83q-11 0 -23 13l-71 81
l-71 -81q-12 -13 -24 -13h-83q-9 0 -9 7q0 6 4 10l92 120q12 15 26 15h130q14 0 26 -15l91 -120q4 -4 4 -10z" />
    <glyph glyph-name="otilde" unicode="&#xf5;" horiz-adv-x="574" 
d="M526 241q0 -111 -62.5 -180t-176.5 -69t-176.5 69t-62.5 180v81q0 111 62.5 180t176.5 69t176.5 -69t62.5 -180v-81zM394 241v81q0 63 -27.5 99t-79.5 36t-79.5 -36t-27.5 -99v-81q0 -63 27.5 -99t79.5 -36t79.5 36t27.5 99zM474 739q0 -112 -111 -112q-39 0 -70 23
l-44 33q-27 21 -42 21q-28 0 -28 -34v-21q0 -16 -14 -16h-57q-14 0 -14 16v21q0 112 112 112q40 0 69 -22l44 -33q26 -20 42 -20q28 0 28 33v21q0 16 14 16h57q14 0 14 -16v-22z" />
    <glyph glyph-name="odieresis" unicode="&#xf6;" horiz-adv-x="574" 
d="M526 241q0 -111 -62.5 -180t-176.5 -69t-176.5 69t-62.5 180v81q0 111 62.5 180t176.5 69t176.5 -69t62.5 -180v-81zM394 241v81q0 63 -27.5 99t-79.5 36t-79.5 -36t-27.5 -99v-81q0 -63 27.5 -99t79.5 -36t79.5 36t27.5 99zM442 659q0 -8 -6.5 -14t-14.5 -6h-72
q-8 0 -14.5 6t-6.5 14v88q0 8 6.5 14t14.5 6h72q8 0 14.5 -6t6.5 -14v-88zM242 659q0 -8 -6.5 -14t-14.5 -6h-72q-8 0 -14.5 6t-6.5 14v88q0 8 6.5 14t14.5 6h72q8 0 14.5 -6t6.5 -14v-88z" />
    <glyph glyph-name="divide" unicode="&#xf7;" 
d="M380 542q0 -8 -6 -14t-14 -6h-90q-8 0 -14 6t-6 14v103q0 8 6 13.5t14 5.5h90q8 0 14 -5.5t6 -13.5v-103zM538 356q0 -16 -20 -16h-405q-20 0 -20 16v70q0 16 20 16h405q20 0 20 -16v-70zM380 127q0 -8 -6 -13.5t-14 -5.5h-90q-8 0 -14 5.5t-6 13.5v103q0 8 6 14t14 6h90
q8 0 14 -6t6 -14v-103z" />
    <glyph glyph-name="oslash" unicode="&#xf8;" horiz-adv-x="574" 
d="M545 589q0 -6 -4 -11l-65 -90q50 -65 50 -166v-81q0 -111 -62.5 -180t-176.5 -69q-81 0 -140 38l-40 -55q-8 -10 -16 -10h-56q-8 0 -8 8q0 6 4 11l66 92q-49 64 -49 165v81q0 111 62.5 180t176.5 69q80 0 139 -38l39 54q8 10 16 10h56q8 0 8 -8zM354 433q-27 24 -67 24
q-52 0 -79.5 -36t-27.5 -99v-81q0 -25 4 -44zM394 241v81q0 27 -4 46l-171 -238q25 -24 68 -24q52 0 79.5 36t27.5 99z" />
    <glyph glyph-name="ugrave" unicode="&#xf9;" horiz-adv-x="592" 
d="M527 20q0 -8 -6 -14t-14 -6h-92q-8 0 -14 6t-6 14v23q-76 -50 -157 -50t-123 42q-50 50 -50 182v326q0 8 6 14.5t14 6.5h92q8 0 14 -6.5t6 -14.5v-326q0 -75 23 -96q21 -18 62 -18q38 0 113 40v400q0 8 6 14.5t14 6.5h92q8 0 14 -6.5t6 -14.5v-523zM380 634q0 -7 -9 -7
h-86q-11 0 -23 13l-119 124q-4 4 -4 8q0 7 11 7h106q14 0 26 -15l94 -120q4 -4 4 -10z" />
    <glyph glyph-name="uacute" unicode="&#xfa;" horiz-adv-x="592" 
d="M527 20q0 -8 -6 -14t-14 -6h-92q-8 0 -14 6t-6 14v23q-76 -50 -157 -50t-123 42q-50 50 -50 182v326q0 8 6 14.5t14 6.5h92q8 0 14 -6.5t6 -14.5v-326q0 -75 23 -96q21 -18 62 -18q38 0 113 40v400q0 8 6 14.5t14 6.5h92q8 0 14 -6.5t6 -14.5v-523zM463 772q0 -4 -4 -8
l-118 -124q-12 -13 -24 -13h-86q-9 0 -9 7q0 6 4 10l95 120q12 15 26 15h105q11 0 11 -7z" />
    <glyph glyph-name="ucircumflex" unicode="&#xfb;" horiz-adv-x="592" 
d="M527 20q0 -8 -6 -14t-14 -6h-92q-8 0 -14 6t-6 14v23q-76 -50 -157 -50t-123 42q-50 50 -50 182v326q0 8 6 14.5t14 6.5h92q8 0 14 -6.5t6 -14.5v-326q0 -75 23 -96q21 -18 62 -18q38 0 113 40v400q0 8 6 14.5t14 6.5h92q8 0 14 -6.5t6 -14.5v-523zM481 634q0 -7 -9 -7
h-83q-11 0 -23 13l-71 81l-71 -81q-12 -13 -24 -13h-83q-9 0 -9 7q0 6 4 10l92 120q12 15 26 15h130q14 0 26 -15l91 -120q4 -4 4 -10z" />
    <glyph glyph-name="udieresis" unicode="&#xfc;" horiz-adv-x="592" 
d="M527 20q0 -8 -6 -14t-14 -6h-92q-8 0 -14 6t-6 14v23q-76 -50 -157 -50t-123 42q-50 50 -50 182v326q0 8 6 14.5t14 6.5h92q8 0 14 -6.5t6 -14.5v-326q0 -75 23 -96q21 -18 62 -18q38 0 113 40v400q0 8 6 14.5t14 6.5h92q8 0 14 -6.5t6 -14.5v-523zM458 659
q0 -8 -6.5 -14t-14.5 -6h-72q-8 0 -14.5 6t-6.5 14v88q0 8 6.5 14t14.5 6h72q8 0 14.5 -6t6.5 -14v-88zM258 659q0 -8 -6.5 -14t-14.5 -6h-72q-8 0 -14.5 6t-6.5 14v88q0 8 6.5 14t14.5 6h72q8 0 14.5 -6t6.5 -14v-88z" />
    <glyph glyph-name="yacute" unicode="&#xfd;" horiz-adv-x="560" 
d="M535 547q0 -4 -1 -6l-167 -584q-17 -59 -37 -90.5t-60 -49t-107 -17.5q-63 0 -106 13q-21 6 -21 17v64q0 18 20 18h2q10 0 53.5 -3t59.5 -3q34 0 51.5 13t27.5 51l8 30h-15q-13 0 -23 2.5t-22.5 10t-23 25.5t-18.5 45l-131 458q-1 3 -1 7q0 16 19 16h101q15 0 19 -18
l101 -407q5 -22 14 -22h1h5h3l108 430q4 17 20 17h102q7 0 12.5 -5t5.5 -12zM471 772q0 -4 -4 -8l-118 -124q-12 -13 -24 -13h-86q-9 0 -9 7q0 6 4 10l95 120q12 15 26 15h105q11 0 11 -7z" />
    <glyph glyph-name="thorn" unicode="&#xfe;" horiz-adv-x="577" 
d="M532 245q0 -120 -59.5 -186.5t-175.5 -66.5q-64 0 -100 8v-178q0 -20 -18 -20h-94q-8 0 -14 6t-6 14v919q0 8 5.5 14t13.5 6h95q18 0 18 -20v-177q52 7 100 7q113 0 174 -66.5t61 -187.5v-72zM400 245v72q0 83 -29.5 114.5t-88.5 31.5q-23 0 -85 -8v-347q48 -8 88 -8
q58 0 86.5 32t28.5 113z" />
    <glyph glyph-name="ydieresis" unicode="&#xff;" horiz-adv-x="560" 
d="M535 547q0 -4 -1 -6l-167 -584q-17 -59 -37 -90.5t-60 -49t-107 -17.5q-63 0 -106 13q-21 6 -21 17v64q0 18 20 18h2q10 0 53.5 -3t59.5 -3q34 0 51.5 13t27.5 51l8 30h-15q-13 0 -23 2.5t-22.5 10t-23 25.5t-18.5 45l-131 458q-1 3 -1 7q0 16 19 16h101q15 0 19 -18
l101 -407q5 -22 14 -22h1h5h3l108 430q4 17 20 17h102q7 0 12.5 -5t5.5 -12zM443 659q0 -8 -6.5 -14t-14.5 -6h-72q-8 0 -14.5 6t-6.5 14v88q0 8 6.5 14t14.5 6h72q8 0 14.5 -6t6.5 -14v-88zM243 659q0 -8 -6.5 -14t-14.5 -6h-72q-8 0 -14.5 6t-6.5 14v88q0 8 6.5 14t14.5 6
h72q8 0 14.5 -6t6.5 -14v-88z" />
    <glyph glyph-name="dotlessi" unicode="&#x131;" horiz-adv-x="268" 
d="M200 21q0 -8 -6 -14.5t-14 -6.5h-92q-8 0 -14 6.5t-6 14.5v523q0 8 6 14t14 6h92q8 0 14 -6t6 -14v-523z" />
    <glyph glyph-name="Lslash" unicode="&#x141;" horiz-adv-x="516" 
d="M75 197v82l-51 -64q-4 -6 -10 -6q-7 0 -7 7v102q0 11 7 20l61 77v309q0 19 19 19h100q8 0 14 -6t6 -14v-176l61 73q6 7 11 7q6 0 6 -8v-101q0 -13 -8 -22l-70 -85v-214q0 -49 17 -67.5t61 -18.5h184q8 0 14 -6t6 -14v-64q0 -10 -4 -14.5t-16 -6.5q-60 -14 -170 -14
q-53 0 -91.5 8.5t-72 30t-50.5 63t-17 103.5z" />
    <glyph glyph-name="lslash" unicode="&#x142;" horiz-adv-x="272" 
d="M279 491q0 -10 -7 -18l-69 -85v-367q0 -8 -5.5 -14.5t-13.5 -6.5h-95q-8 0 -14 6.5t-6 14.5v240l-61 -70q-6 -6 -10 -6q-5 0 -5 6v115q0 9 6 16l70 85v334q0 8 6 14t14 6h95q8 0 13.5 -6t5.5 -14v-207l61 72q5 5 8 5q7 0 7 -10v-110z" />
    <glyph glyph-name="OE" unicode="&#x152;" horiz-adv-x="990" 
d="M930 27q0 -10 -4.5 -14.5t-15.5 -6.5q-90 -14 -190 -14q-136 0 -187 64q-68 -64 -188 -64q-131 0 -208 77t-77 235v135q0 158 77 235t208 77q118 0 188 -64q46 64 187 64q100 0 190 -14q11 -2 15.5 -6.5t4.5 -14.5v-64q0 -8 -6 -14t-14 -6h-204q-44 0 -61.5 -18.5
t-17.5 -67.5v-108h271q8 0 14 -6t6 -14v-72q0 -8 -6 -14t-14 -6h-271v-129q0 -49 17.5 -67.5t61.5 -18.5h204q8 0 14 -6t6 -14v-64zM489 280v183q0 167 -144 167q-74 0 -109.5 -46.5t-35.5 -144.5v-135q0 -98 35.5 -144.5t109.5 -46.5q144 0 144 167z" />
    <glyph glyph-name="oe" unicode="&#x153;" horiz-adv-x="926" 
d="M876 261q0 -25 -20 -25h-328v-6v-4q2 -52 29 -88.5t83 -36.5q89 0 194 10h3q18 0 18 -15v-61q0 -23 -21 -26q-92 -17 -194 -17q-115 0 -177 72q-63 -72 -174 -72q-114 0 -176.5 69t-62.5 180v81q0 111 62.5 180t176.5 69q112 0 175 -74q63 74 174 74q112 0 175 -72
t63 -182v-56zM745 330v4q0 63 -29 94.5t-78 31.5q-47 0 -78.5 -30t-31.5 -86v-6v-8h217zM396 241v81q0 63 -27.5 99t-79.5 36t-79.5 -36t-27.5 -99v-81q0 -63 27.5 -99t79.5 -36t79.5 36t27.5 99z" />
    <glyph glyph-name="Scaron" unicode="&#x160;" horiz-adv-x="570" 
d="M525 201q0 -87 -62.5 -148t-200.5 -61q-98 0 -177 18q-19 4 -19 20v72q0 8 5.5 13.5t13.5 5.5h2q80 -10 177 -10q64 0 90 22t26 68q0 29 -17.5 48.5t-67.5 49.5l-132 79q-66 39 -92 83t-26 100q0 190 250 190q115 0 192 -18q18 -4 18 -19v-74q0 -18 -17 -18h-2
q-110 10 -197 10q-105 0 -105 -71q0 -25 17 -43.5t65 -45.5l120 -67q78 -43 108.5 -91.5t30.5 -112.5zM467 940q0 -6 -4 -10l-94 -120q-12 -15 -26 -15h-130q-14 0 -26 15l-95 120q-4 4 -4 10q0 7 9 7h86q12 0 24 -14l71 -79l71 79q12 14 23 14h86q9 0 9 -7z" />
    <glyph glyph-name="scaron" unicode="&#x161;" horiz-adv-x="489" 
d="M444 148q0 -68 -51 -112t-145 -44q-104 0 -179 20q-19 5 -19 23v60q0 6 5 11t12 5h4q88 -11 168 -11q43 0 57 12t14 36t-44 51l-137 84q-38 23 -61 59.5t-23 78.5q0 150 190 150q85 0 178 -20q18 -5 18 -23v-58q0 -19 -16 -19h-4q-84 12 -165 12q-37 0 -53 -9.5
t-16 -32.5q0 -11 9 -19.5t31 -21.5l131 -80q58 -35 77 -71t19 -81zM433 772q0 -6 -4 -10l-94 -120q-12 -15 -26 -15h-130q-14 0 -26 15l-95 120q-4 4 -4 10q0 7 9 7h86q12 0 24 -14l71 -79l71 79q12 14 23 14h86q9 0 9 -7z" />
    <glyph glyph-name="Ydieresis" unicode="&#x178;" horiz-adv-x="615" 
d="M590 728q0 -2 -2 -8l-152 -347q-25 -58 -61 -73v-280q0 -8 -5.5 -14t-13.5 -6h-100q-8 0 -13.5 6t-5.5 14v280q-36 15 -61 73l-151 347q-2 6 -2 8q0 15 16 15h111q13 0 19 -16l120 -298q8 -20 17 -20q10 0 18 20l120 298q6 16 19 16h110q17 0 17 -15zM469 819
q0 -8 -6.5 -14t-14.5 -6h-72q-8 0 -14.5 6t-6.5 14v88q0 8 6.5 14t14.5 6h72q8 0 14.5 -6t6.5 -14v-88zM269 819q0 -8 -6.5 -14t-14.5 -6h-72q-8 0 -14.5 6t-6.5 14v88q0 8 6.5 14t14.5 6h72q8 0 14.5 -6t6.5 -14v-88z" />
    <glyph glyph-name="Zcaron" unicode="&#x17d;" horiz-adv-x="588" 
d="M548 20q0 -8 -6 -14t-14 -6h-437q-51 0 -51 37v55q0 19 13 38l317 475q3 5 3 9q0 8 -10 8h-278q-19 0 -19 18v84q0 19 19 19h403q23 0 38 -9.5t15 -28.5v-58q0 -20 -14 -41l-312 -467q-4 -5 -4 -11t9 -6h308q20 0 20 -18v-84zM499 939q0 -6 -4 -10l-94 -120
q-12 -15 -26 -15h-130q-14 0 -26 15l-95 120q-4 4 -4 10q0 7 9 7h86q12 0 24 -14l71 -79l71 79q12 14 23 14h86q9 0 9 -7z" />
    <glyph glyph-name="zcaron" unicode="&#x17e;" horiz-adv-x="490" 
d="M450 20q0 -8 -6 -14t-14 -6h-350q-16 0 -28 12t-12 28v43q0 15 13 32l242 333q3 5 3 6q0 3 -6 3h-226q-18 0 -18 16v71q0 8 6 14t14 6h340q16 0 28 -12t12 -29v-57q0 -16 -5 -23l-233 -319l-2 -3q0 -4 6 -4h218q18 0 18 -16v-81zM449 772q0 -6 -4 -10l-94 -120
q-12 -15 -26 -15h-130q-14 0 -26 15l-95 120q-4 4 -4 10q0 7 9 7h86q12 0 24 -14l71 -79l71 79q12 14 23 14h86q9 0 9 -7z" />
    <glyph glyph-name="florin" unicode="&#x192;" 
d="M587 752v-3l-8 -58q-2 -17 -24 -17h-61q-36 0 -50 -12t-19 -45l-24 -173h138q17 0 17 -16v-3l-9 -65q-4 -20 -23 -20h-137l-48 -337q-22 -158 -191 -158q-45 0 -87 7q-18 4 -18 15v3l8 58q2 17 24 17h61q36 0 50 12t19 45l48 338h-127q-7 0 -12.5 5t-5.5 12v3l9 65
q3 19 23 19h127l24 173q22 157 191 157q45 0 87 -7q18 -4 18 -15z" />
    <glyph glyph-name="circumflex" unicode="&#x2c6;" horiz-adv-x="415" 
d="M394 634q0 -7 -9 -7h-83q-11 0 -23 13l-71 81l-71 -81q-12 -13 -24 -13h-83q-9 0 -9 7q0 6 4 10l92 120q12 15 26 15h130q14 0 26 -15l91 -120q4 -4 4 -10z" />
    <glyph glyph-name="caron" unicode="&#x2c7;" horiz-adv-x="415" 
d="M397 772q0 -6 -4 -10l-94 -120q-12 -15 -26 -15h-130q-14 0 -26 15l-95 120q-4 4 -4 10q0 7 9 7h86q12 0 24 -14l71 -79l71 79q12 14 23 14h86q9 0 9 -7z" />
    <glyph glyph-name="uni02C9" unicode="&#x2c9;" horiz-adv-x="373" 
d="M351 692q0 -17 -20 -17h-288q-20 0 -20 17v34q0 17 20 17h288q20 0 20 -17v-34z" />
    <glyph glyph-name="breve" unicode="&#x2d8;" horiz-adv-x="415" 
d="M386 772v-2q-1 -1 -1 -2q-14 -64 -57.5 -104.5t-119.5 -40.5t-119.5 40.5t-57.5 104.5q0 1 -1 2v2q0 7 10 7h75q10 0 13 -12q17 -66 80 -66t80 66q3 12 13 12h75q10 0 10 -7z" />
    <glyph glyph-name="dotaccent" unicode="&#x2d9;" horiz-adv-x="415" 
d="M273 655q0 -8 -6 -14t-14 -6h-90q-8 0 -14 6t-6 14v95q0 8 6 13.5t14 5.5h90q8 0 14 -5.5t6 -13.5v-95z" />
    <glyph glyph-name="ring" unicode="&#x2da;" horiz-adv-x="415" 
d="M318 708q0 -46 -32 -78t-78 -32t-78.5 32t-32.5 78t32.5 78.5t78.5 32.5t78 -32.5t32 -78.5zM256 709q0 19 -14 33t-34 14q-19 0 -32.5 -13.5t-13.5 -33.5t13.5 -34t32.5 -14q20 0 34 14.5t14 33.5z" />
    <glyph glyph-name="ogonek" unicode="&#x2db;" horiz-adv-x="403" 
d="M187 20h105q10 0 10 -8q0 -5 -4 -8l-51 -34q-39 -26 -48 -34.5t-9 -21.5q0 -19 25 -19q17 0 35.5 2.5t31.5 4.5t15 2q7 0 8.5 -2t1.5 -10v-58q0 -10 -11 -15q-47 -20 -103 -20q-52 0 -89.5 24.5t-37.5 67.5q0 42 18.5 63t77.5 58q13 8 25 8z" />
    <glyph glyph-name="tilde" unicode="&#x2dc;" horiz-adv-x="496" 
d="M433 739q0 -112 -111 -112q-39 0 -70 23l-44 33q-27 21 -42 21q-28 0 -28 -34v-21q0 -16 -14 -16h-57q-14 0 -14 16v21q0 112 112 112q40 0 69 -22l44 -33q26 -20 42 -20q28 0 28 33v21q0 16 14 16h57q14 0 14 -16v-22z" />
    <glyph glyph-name="hungarumlaut" unicode="&#x2dd;" horiz-adv-x="415" 
d="M457 772q0 -4 -4 -8l-118 -124q-12 -13 -24 -13h-86q-9 0 -9 7q0 6 4 10l95 120q12 15 26 15h105q11 0 11 -7zM247 772q0 -4 -4 -8l-118 -124q-12 -13 -24 -13h-86q-9 0 -9 7q0 6 4 10l95 120q12 15 26 15h105q11 0 11 -7z" />
    <glyph glyph-name="uni03A9" unicode="&#x3a9;" horiz-adv-x="366" 
d="M483 433v28q0 79 -36 123t-108 44t-108 -44t-36 -123v-28q0 -86 18 -124.5t77 -59.5q9 -3 11.5 -7.5t2.5 -17.5v-203q0 -21 -21 -21h-181q-23 0 -23 21v84q0 20 23 20h121v27q-42 14 -73 37t-48.5 49.5t-28.5 61t-14.5 65.5t-3.5 68v28q0 138 78 216t206 78t206 -78
t78 -216v-28q0 -37 -3.5 -68t-14.5 -65.5t-28.5 -61t-48.5 -49.5t-73 -37v-27h121q23 0 23 -20v-84q0 -21 -23 -21h-181q-21 0 -21 21v203q0 13 2.5 17.5t11.5 7.5q59 21 77 59.5t18 124.5z" />
    <glyph glyph-name="uni03BC" unicode="&#x3bc;" horiz-adv-x="587" 
d="M527 42q0 -19 -27 -26q-92 -24 -203 -24q-64 0 -103 31v-195q0 -20 -18 -20h-97q-8 0 -13.5 6t-5.5 14v715q0 8 6 14.5t14 6.5h93q8 0 14 -6.5t6 -14.5v-346q0 -96 104 -96q55 0 96 11v431q0 8 6 14.5t14 6.5h93q8 0 14.5 -6.5t6.5 -14.5v-501z" />
    <glyph glyph-name="pi" unicode="&#x3c0;" horiz-adv-x="672" 
d="M636 454h-69v-320q0 -18 8.5 -21.5t41.5 -3.5h24q10 0 10 -11v-93q0 -5 -1.5 -8t-3 -3.5t-6.5 -1.5q-20 -4 -85 -4q-67 0 -93.5 32.5t-26.5 113.5v320h-198v-434q0 -20 -14 -20h-103q-15 0 -15 20v434h-69q-9 0 -12 3t-3 12v79q0 10 3.5 13t11.5 3h600q8 0 11.5 -3
t3.5 -13v-79q0 -9 -3 -12t-12 -3z" />
    <glyph glyph-name="endash" unicode="&#x2013;" horiz-adv-x="309" 
d="M324 256q0 -18 -19 -18h-301q-19 0 -19 18v63q0 19 19 19h301q19 0 19 -19v-63z" />
    <glyph glyph-name="emdash" unicode="&#x2014;" horiz-adv-x="599" 
d="M614 256q0 -18 -19 -18h-591q-19 0 -19 18v63q0 19 19 19h591q19 0 19 -19v-63z" />
    <glyph glyph-name="quoteleft" unicode="&#x2018;" horiz-adv-x="215" 
d="M196 751q0 -6 -1 -9l-51 -207q-4 -19 -20 -19h-94q-11 0 -11 11q0 5 1 8l68 207q5 19 19 19h80q9 0 9 -10z" />
    <glyph glyph-name="quoteright" unicode="&#x2019;" horiz-adv-x="215" 
d="M196 750q0 -5 -1 -8l-68 -207q-5 -19 -19 -19h-80q-9 0 -9 10q0 6 1 9l51 207q4 19 20 19h94q11 0 11 -11z" />
    <glyph glyph-name="quotesinglbase" unicode="&#x201a;" horiz-adv-x="215" 
d="M203 140q0 -1 -2 -7l-87 -210q-8 -20 -19 -20h-69q-15 0 -15 14q0 4 1 6l61 210q6 19 20 19h96q14 0 14 -12z" />
    <glyph glyph-name="quotedblleft" unicode="&#x201c;" horiz-adv-x="416" 
d="M397 751q0 -6 -1 -9l-51 -207q-4 -19 -20 -19h-94q-11 0 -11 11q0 5 1 8l68 207q5 19 19 19h80q9 0 9 -10zM196 751q0 -6 -1 -9l-51 -207q-4 -19 -20 -19h-94q-11 0 -11 11q0 5 1 8l68 207q5 19 19 19h80q9 0 9 -10z" />
    <glyph glyph-name="quotedblright" unicode="&#x201d;" horiz-adv-x="416" 
d="M397 750q0 -5 -1 -8l-68 -207q-5 -19 -19 -19h-80q-9 0 -9 10q0 6 1 9l51 207q4 19 20 19h94q11 0 11 -11zM196 750q0 -5 -1 -8l-68 -207q-5 -19 -19 -19h-80q-9 0 -9 10q0 6 1 9l51 207q4 19 20 19h94q11 0 11 -11z" />
    <glyph glyph-name="quotedblbase" unicode="&#x201e;" horiz-adv-x="416" 
d="M413 140q0 -1 -2 -7l-87 -210q-8 -20 -19 -20h-69q-15 0 -15 14q0 4 1 6l61 210q6 19 20 19h96q14 0 14 -12zM203 140q0 -1 -2 -7l-87 -210q-8 -20 -19 -20h-69q-15 0 -15 14q0 4 1 6l61 210q6 19 20 19h96q14 0 14 -12z" />
    <glyph glyph-name="dagger" unicode="&#x2020;" horiz-adv-x="425" 
d="M393 477q0 -16 -19 -16h-99v-447q0 -20 -16 -20h-102q-16 0 -16 20v447h-89q-19 0 -19 16v80q0 15 19 15h89v170q0 19 17 19h101q16 0 16 -19v-170h99q19 0 19 -15v-80z" />
    <glyph glyph-name="daggerdbl" unicode="&#x2021;" horiz-adv-x="425" 
d="M393 267q0 -16 -19 -16h-99v-237q0 -20 -16 -20h-102q-16 0 -16 20v237h-89q-19 0 -19 16v80q0 15 19 15h89v99h-89q-19 0 -19 16v80q0 15 19 15h89v170q0 19 17 19h101q16 0 16 -19v-170h99q19 0 19 -15v-80q0 -16 -19 -16h-99v-99h99q19 0 19 -15v-80z" />
    <glyph glyph-name="bullet" unicode="&#x2022;" horiz-adv-x="418" 
d="M373 367q0 -68 -48 -116t-116 -48t-116 48t-48 116t48 116t116 48t116 -48t48 -116z" />
    <glyph glyph-name="ellipsis" unicode="&#x2026;" horiz-adv-x="703" 
d="M650 20q0 -8 -6 -14t-14 -6h-90q-8 0 -14 6t-6 14v113q0 8 6 13.5t14 5.5h90q8 0 14 -5.5t6 -13.5v-113zM417 20q0 -8 -6 -14t-14 -6h-90q-8 0 -14 6t-6 14v113q0 8 6 13.5t14 5.5h90q8 0 14 -5.5t6 -13.5v-113zM184 20q0 -8 -6 -14t-14 -6h-90q-8 0 -14 6t-6 14v113
q0 8 6 13.5t14 5.5h90q8 0 14 -5.5t6 -13.5v-113z" />
    <glyph glyph-name="perthousand" unicode="&#x2030;" horiz-adv-x="1162" 
d="M1122 162q0 -168 -142 -168q-69 0 -106 42t-37 126v82q0 84 37 126t106 42q142 0 142 -168v-82zM772 162q0 -168 -142 -168q-69 0 -106 42t-37 126v82q0 84 37 126t106 42q142 0 142 -168v-82zM674 735q0 -5 -4 -12l-417 -705q-12 -21 -23 -21h-84q-10 0 -10 9q0 7 4 12
l417 705q12 20 24 20h84q9 0 9 -8zM325 499q0 -168 -142 -168q-69 0 -106 42t-37 126v82q0 167 143 167q142 0 142 -167v-82zM1037 162v82q0 51 -14 72t-43 21t-43.5 -21t-14.5 -72v-82q0 -51 14.5 -72t43.5 -21t43 21t14 72zM687 162v82q0 51 -14 72t-43 21t-43.5 -21
t-14.5 -72v-82q0 -51 14.5 -72t43.5 -21t43 21t14 72zM240 499v82q0 51 -14 72t-43 21t-43.5 -21t-14.5 -72v-82q0 -94 58 -94q28 0 42.5 21.5t14.5 72.5z" />
    <glyph glyph-name="guilsinglleft" unicode="&#x2039;" horiz-adv-x="402" 
d="M350 77q0 -11 -15 -11h-95q-17 0 -30 13l-162 178q-8 8 -8 25t8 25l162 178q13 13 30 13h95q15 0 15 -11q0 -4 -3 -7l-181 -198l181 -198q3 -3 3 -7z" />
    <glyph glyph-name="guilsinglright" unicode="&#x203a;" horiz-adv-x="402" 
d="M362 282q0 -17 -8 -25l-162 -178q-13 -13 -30 -13h-95q-15 0 -15 11q0 4 3 7l181 198l-181 198q-3 3 -3 7q0 11 15 11h95q17 0 30 -13l162 -178q8 -8 8 -25z" />
    <glyph glyph-name="fraction" unicode="&#x2044;" horiz-adv-x="294" 
d="M463 735q0 -7 -4 -12l-419 -709q-10 -17 -21 -17h-82q-10 0 -10 9q0 7 4 12l419 708q10 17 22 17h81q10 0 10 -8z" />
    <glyph glyph-name="i.superior" unicode="&#x2071;" horiz-adv-x="153" 
d="M117 336q0 -15 -14 -15h-53q-14 0 -14 15v295q0 14 14 14h53q14 0 14 -14v-295zM119 697q0 -15 -15 -15h-55q-15 0 -15 15v49q0 14 15 14h55q15 0 15 -14v-49z" />
    <glyph glyph-name="franc" unicode="&#x20a3;" horiz-adv-x="576" 
d="M20 248h55v298q0 62 17 103.5t50.5 63t72 30t91.5 8.5q100 0 190 -14q11 -2 15.5 -6.5t4.5 -14.5v-64q0 -8 -6 -14t-14 -6h-204q-44 0 -61.5 -18.5t-17.5 -67.5v-108h271q8 0 14 -6t6 -14v-72q0 -8 -6 -14t-14 -6h-271v-78h119q8 0 14 -6t6 -14v-72q0 -8 -6 -14t-14 -6
h-119v-116q0 -8 -6 -14t-14 -6h-98q-8 0 -14 6t-6 14v116h-55q-8 0 -14 6t-6 14v72q0 8 6 14t14 6z" />
    <glyph glyph-name="lira" unicode="&#x20a4;" 
d="M460 215h-186v-15q0 -47 -24 -89h291q20 0 20 -17v-76q0 -18 -20 -18h-427q-18 0 -18 26v51q0 11 8 23q34 50 34 100v15h-50q-19 0 -19 18v75q0 8 6 13.5t14 5.5h49v58h-50q-19 0 -19 18v75q0 8 6 13.5t14 5.5h49v36q0 102 54.5 152t188.5 50q86 0 163 -14q12 -2 15 -6
t3 -13v-73q0 -18 -17 -18h-2q-133 10 -162 10q-58 0 -82.5 -18.5t-24.5 -69.5v-36h185q8 0 14 -5.5t6 -13.5v-75q0 -18 -19 -18h-186v-58h185q8 0 14 -5.5t6 -13.5v-75q0 -18 -19 -18z" />
    <glyph glyph-name="peseta" unicode="&#x20a7;" horiz-adv-x="1520" 
d="M591 511q0 -64 -23 -111t-64 -73t-90.5 -38t-110.5 -12q-12 0 -28 0.5t-35 2t-26 1.5v-261q0 -8 -5.5 -14t-13.5 -6h-100q-8 0 -14 6t-6 14v688q0 25 32 30q85 13 196 13q61 0 110.5 -11.5t90.5 -37t64 -72t23 -110.5v-9zM453 511v9q0 62 -36.5 89t-113.5 27
q-53 0 -89 -4v-238q48 -3 89 -3q79 0 114.5 29.5t35.5 90.5zM1006 17q0 -15 -19 -18q-42 -7 -68 -7q-89 0 -124 31.5t-35 127.5v314l-94 14q-20 4 -20 20v45q0 8 6 14t14 6h94v82q0 16 20 20l93 16h4q16 0 16 -15v-103h90q8 0 14 -6t6 -14v-59q0 -8 -6 -14t-14 -6h-90v-314
q0 -38 6 -47t33 -9h53q21 0 21 -15v-63zM1475 148q0 -68 -51 -112t-145 -44q-104 0 -179 20q-19 5 -19 23v60q0 6 5 11t12 5h4q88 -11 168 -11q43 0 57 12t14 36t-44 51l-137 84q-38 23 -61 59.5t-23 78.5q0 150 190 150q85 0 178 -20q18 -5 18 -23v-58q0 -19 -16 -19h-4
q-84 12 -165 12q-37 0 -53 -9.5t-16 -32.5q0 -11 9 -19.5t31 -21.5l131 -80q58 -35 77 -71t19 -81z" />
    <glyph glyph-name="Euro" unicode="&#x20ac;" 
d="M570 31q0 -16 -22 -23q-60 -16 -146 -16q-47 0 -92 12.5t-89.5 40t-75 80.5t-36.5 126h-38q-8 0 -14 6t-6 14v48q0 8 6 14t14 6h36v68h-36q-8 0 -14 6t-6 14v48q0 8 6 14t14 6h38q6 60 28.5 106t52 73.5t68 45.5t73.5 24.5t72 6.5q85 0 145 -16q22 -7 22 -23v-67
q0 -21 -19 -21h-3q-94 8 -143 8q-61 0 -102.5 -33t-52.5 -104h246q7 0 11.5 -4.5t4.5 -10.5q0 -1 -0.5 -2.5t-0.5 -2.5l-13 -48q-5 -20 -20 -20h-231v-68h206q7 0 11.5 -4.5t4.5 -10.5q0 -1 -0.5 -2.5t-0.5 -2.5l-13 -48q-5 -20 -20 -20h-186q11 -72 52.5 -106t102.5 -34
q36 0 144 8h3q19 0 19 -21v-67z" />
    <glyph glyph-name="afii61289" unicode="&#x2113;" horiz-adv-x="506" 
d="M468 64q8 -16 -5 -24q-26 -21 -73 -37.5t-95 -16.5q-84 0 -121 45t-37 143v78l-60 -46q-14 -10 -22 2l-18 29q-9 12 2 21l98 72v268q0 97 40.5 144.5t127.5 47.5t127.5 -40t40.5 -102q0 -159 -202 -319v-146q0 -89 67 -89q36 0 82 26q17 9 25 -5zM403 648q0 77 -64 77
q-41 0 -54.5 -29.5t-13.5 -97.5v-187q132 120 132 237z" />
    <glyph glyph-name="trademark" unicode="&#x2122;" horiz-adv-x="814" 
d="M773 348q0 -10 -10 -10h-64q-10 0 -10 10v245q0 50 -13.5 63t-70.5 13v-321q0 -10 -11 -10h-64q-10 0 -10 10v321q-38 0 -84 -4v-317q0 -10 -10 -10h-63q-11 0 -11 10v361q0 15 5 20.5t18 7.5q109 10 187 10q61 0 95.5 -4.5t63.5 -20.5t40.5 -47t11.5 -82v-245zM319 685
q0 -13 -15 -13h-88v-320q0 -5 -4 -9.5t-10 -4.5h-59q-6 0 -10 4.5t-4 9.5v320h-90q-14 0 -14 13v44q0 14 14 14h265q15 0 15 -14v-44z" />
    <glyph glyph-name="Omega" unicode="&#x2126;" horiz-adv-x="678" 
d="M483 433v28q0 79 -36 123t-108 44t-108 -44t-36 -123v-28q0 -86 18 -124.5t77 -59.5q9 -3 11.5 -7.5t2.5 -17.5v-203q0 -21 -21 -21h-181q-23 0 -23 21v84q0 20 23 20h121v27q-42 14 -73 37t-48.5 49.5t-28.5 61t-14.5 65.5t-3.5 68v28q0 138 78 216t206 78t206 -78
t78 -216v-28q0 -37 -3.5 -68t-14.5 -65.5t-28.5 -61t-48.5 -49.5t-73 -37v-27h121q23 0 23 -20v-84q0 -21 -23 -21h-181q-21 0 -21 21v203q0 13 2.5 17.5t11.5 7.5q59 21 77 59.5t18 124.5z" />
    <glyph glyph-name="estimated" unicode="&#x212e;" horiz-adv-x="606" 
d="M577 282h-429v-193q66 -63 152 -63q76 0 123 33t87 94l31 -19q-44 -68 -99 -104.5t-142 -36.5q-119 0 -195 84.5t-76 205.5q0 123 75 206.5t200 83.5q124 0 198.5 -84.5t74.5 -206.5zM457 315v163q-68 62 -153 62q-96 0 -156 -62v-163h309z" />
    <glyph glyph-name="onethird" unicode="&#x2153;" horiz-adv-x="748" 
d="M39 720l81 31q6 3 21 3h36q17 0 17 -17v-380q0 -7 -5 -12t-12 -5h-53q-7 0 -12 5t-5 12v307l-56 -19q-21 -7 -21 11v53q0 7 9 11zM600 735q0 -7 -4 -12l-419 -709q-10 -17 -21 -17h-82q-10 0 -10 9q0 7 4 12l419 708q10 17 22 17h81q10 0 10 -8zM718 118q0 -61 -39 -91.5
t-103 -30.5q-48 0 -104 13q-16 4 -16 17v33q0 16 18 16q69 -8 102 -8q55 0 55 51v12q0 49 -44 49h-95q-17 0 -17 16v34q0 16 17 16h95q44 0 44 47v9q0 46 -55 46q-26 0 -104 -8q-16 0 -16 16v33q0 12 16 16q52 14 104 14q65 0 103.5 -28t38.5 -89v-9q0 -55 -41 -80
q41 -27 41 -82v-12z" />
    <glyph glyph-name="twothirds" unicode="&#x2154;" horiz-adv-x="827" 
d="M679 735q0 -7 -4 -12l-419 -709q-10 -17 -21 -17h-82q-10 0 -10 9q0 7 4 12l419 708q10 17 22 17h81q10 0 10 -8zM797 118q0 -61 -39 -91.5t-103 -30.5q-48 0 -104 13q-16 4 -16 17v33q0 16 18 16q69 -8 102 -8q55 0 55 51v12q0 49 -44 49h-95q-17 0 -17 16v34
q0 16 17 16h95q44 0 44 47v9q0 46 -55 46q-26 0 -104 -8q-16 0 -16 16v33q0 12 16 16q53 14 104 14q65 0 103.5 -28t38.5 -89v-9q0 -55 -41 -80q41 -27 41 -82v-12zM297 653q0 -60 -71 -109l-48 -33q-37 -25 -54.5 -47t-19.5 -50h172q17 0 17 -16v-41q0 -7 -5 -12t-12 -5
h-229q-7 0 -12 5t-5 12v53q0 43 24.5 82.5t60.5 63.5l54 36q26 17 36 29.5t10 31.5t-13 26.5t-44 7.5q-42 0 -108 -8q-7 0 -12 5t-5 12v32q0 12 15 16h-1q49 14 111 14q73 0 106 -25.5t33 -79.5z" />
    <glyph glyph-name="oneeighth" unicode="&#x215b;" horiz-adv-x="764" 
d="M39 720l81 31q6 3 21 3h36q17 0 17 -17v-380q0 -7 -5 -12t-12 -5h-53q-7 0 -12 5t-5 12v307l-56 -19q-21 -7 -21 11v53q0 7 9 11zM600 735q0 -7 -4 -12l-419 -709q-10 -17 -21 -17h-82q-10 0 -10 9q0 7 4 12l419 708q10 17 22 17h81q10 0 10 -8zM734 122q0 -64 -40.5 -95
t-103.5 -31h-5q-63 0 -103.5 31t-40.5 95v5q0 54 44 88q-43 30 -43 87q0 59 39.5 87.5t103.5 28.5h5q63 0 103 -28.5t40 -89.5q0 -53 -44 -85q45 -33 45 -88v-5zM650 122v5q0 21 -12.5 37.5t-38.5 16.5h-23q-26 0 -38.5 -16.5t-12.5 -37.5v-5q0 -26 15.5 -42t44.5 -16h5
q29 0 44.5 16t15.5 42zM591 351h-6q-61 0 -61 -54q0 -49 52 -49h23q53 0 53 49q0 54 -61 54z" />
    <glyph glyph-name="threeeighths" unicode="&#x215c;" horiz-adv-x="829" 
d="M665 735q0 -7 -4 -12l-419 -709q-10 -17 -21 -17h-82q-10 0 -10 9q0 7 4 12l419 708q10 17 22 17h81q10 0 10 -8zM799 122q0 -64 -40.5 -95t-103.5 -31h-5q-63 0 -103.5 31t-40.5 95v5q0 54 44 88q-43 30 -43 87q0 59 39.5 87.5t103.5 28.5h5q63 0 103 -28.5t40 -89.5
q0 -53 -44 -85q45 -33 45 -88v-5zM715 122v5q0 21 -12.5 37.5t-38.5 16.5h-23q-26 0 -38.5 -16.5t-12.5 -37.5v-5q0 -26 15.5 -42t44.5 -16h5q29 0 44.5 16t15.5 42zM656 351h-6q-61 0 -61 -54q0 -49 52 -49h23q53 0 53 49q0 54 -61 54zM292 458q0 -61 -39 -91.5t-103 -30.5
q-48 0 -104 13q-16 4 -16 17v33q0 16 18 16q69 -8 102 -8q55 0 55 51v12q0 49 -44 49h-95q-17 0 -17 16v34q0 16 17 16h95q44 0 44 47v9q0 46 -55 46q-26 0 -104 -8q-16 0 -16 16v33q0 12 16 16q52 14 104 14q65 0 103.5 -28t38.5 -89v-9q0 -55 -41 -80q41 -27 41 -82v-12z
" />
    <glyph glyph-name="fiveeighths" unicode="&#x215d;" horiz-adv-x="833" 
d="M669 735q0 -7 -4 -12l-419 -709q-10 -17 -21 -17h-82q-10 0 -10 9q0 7 4 12l419 708q10 17 22 17h81q10 0 10 -8zM803 122q0 -64 -40.5 -95t-103.5 -31h-5q-63 0 -103.5 31t-40.5 95v5q0 54 44 88q-43 30 -43 87q0 59 39.5 87.5t103.5 28.5h5q63 0 103 -28.5t40 -89.5
q0 -53 -44 -85q45 -33 45 -88v-5zM719 122v5q0 21 -12.5 37.5t-38.5 16.5h-23q-26 0 -38.5 -16.5t-12.5 -37.5v-5q0 -26 15.5 -42t44.5 -16h5q29 0 44.5 16t15.5 42zM660 351h-6q-61 0 -61 -54q0 -49 52 -49h23q53 0 53 49q0 54 -61 54zM296 474q0 -66 -36.5 -102
t-109.5 -36q-55 0 -104 13q-16 5 -16 18v32q0 16 18 16q57 -8 102 -8q33 0 45.5 17.5t12.5 52.5q0 30 -20.5 42.5t-68.5 12.5h-73q-12 0 -12 13l17 195q4 14 17 14h196q7 0 12 -5t5 -12v-41q0 -16 -17 -16h-141l-7 -77h3q36 0 64 -4.5t55.5 -17t42.5 -39t15 -65.5v-3z" />
    <glyph glyph-name="seveneighths" unicode="&#x215e;" horiz-adv-x="750" 
d="M586 735q0 -7 -4 -12l-419 -709q-10 -17 -21 -17h-82q-10 0 -10 9q0 7 4 12l419 708q10 17 22 17h81q10 0 10 -8zM720 122q0 -64 -40.5 -95t-103.5 -31h-5q-63 0 -103.5 31t-40.5 95v5q0 54 44 88q-43 30 -43 87q0 59 39.5 87.5t103.5 28.5h5q63 0 103 -28.5t40 -89.5
q0 -53 -44 -85q45 -33 45 -88v-5zM636 122v5q0 21 -12.5 37.5t-38.5 16.5h-23q-26 0 -38.5 -16.5t-12.5 -37.5v-5q0 -26 15.5 -42t44.5 -16h5q29 0 44.5 16t15.5 42zM577 351h-6q-61 0 -61 -54q0 -49 52 -49h23q53 0 53 49q0 54 -61 54zM290 670l-147 -316q-8 -14 -19 -14
h-56q-9 0 -12.5 6.5t-0.5 13.5l153 320h-161q-17 0 -17 16v41q0 7 5 12t12 5h225q28 0 28 -28v-21q0 -16 -10 -35z" />
    <glyph glyph-name="partialdiff" unicode="&#x2202;" horiz-adv-x="600" 
d="M560 467q0 -106 -22 -218q-51 -256 -280 -256q-108 0 -163 54t-55 151q0 39 12 111q39 237 264 237q75 0 115 -37q-3 19 -4 22q-4 39 -14 68.5t-30.5 56.5t-59.5 41.5t-94 14.5q-57 0 -98 -8q-8 -1 -12 1.5t-3 9.5l5 52q1 10 5.5 13.5t13.5 5.5q48 11 112 11
q154 0 231 -87.5t77 -242.5zM414 348q0 47 -21.5 70.5t-70.5 23.5q-112 0 -134 -151q-11 -71 -11 -96q0 -97 92 -97q110 0 133 151q12 71 12 99z" />
    <glyph glyph-name="Delta" unicode="&#x2206;" horiz-adv-x="646" 
d="M627 17q0 -17 -18 -17h-572q-18 0 -18 17l1 2v3l164 627q26 102 139 102t139 -102l164 -627v-3zM461 114l-122 504q-4 16 -16 16t-16 -16l-122 -504h276z" />
    <glyph glyph-name="product" unicode="&#x220f;" horiz-adv-x="712" 
d="M29 743h654q14 0 14 -17v-89q0 -16 -14 -16h-46v-676q0 -8 -6 -14t-14 -6h-99q-8 0 -14 6t-6 14v676h-284v-676q0 -8 -6 -14t-14 -6h-99q-8 0 -14 6t-6 14v676h-46q-14 0 -14 16v89q0 17 14 17z" />
    <glyph glyph-name="summation" unicode="&#x2211;" horiz-adv-x="547" 
d="M492 -59q0 -16 -14 -16h-406q-17 0 -17 20v86q0 14 6 24l191 267q3 5 3 12t-3 12l-191 267q-6 10 -6 24v86q0 20 17 20h406q14 0 14 -16v-88q0 -17 -14 -17h-268q-8 0 -3 -9l177 -245q6 -9 6 -20v-28q0 -11 -6 -20l-177 -245q-5 -9 3 -9h268q14 0 14 -17v-88z" />
    <glyph glyph-name="minus" unicode="&#x2212;" 
d="M548 356q0 -16 -20 -16h-425q-20 0 -20 16v70q0 16 20 16h425q20 0 20 -16v-70z" />
    <glyph glyph-name="uni2215" unicode="&#x2215;" horiz-adv-x="294" 
d="M463 735q0 -7 -4 -12l-419 -709q-10 -17 -21 -17h-82q-10 0 -10 9q0 7 4 12l419 708q10 17 22 17h81q10 0 10 -8z" />
    <glyph glyph-name="uni2219" unicode="&#x2219;" horiz-adv-x="259" 
d="M194 329q0 -8 -6 -14t-14 -6h-89q-8 0 -14 6t-6 14v113q0 8 6 13.5t14 5.5h89q8 0 14 -5.5t6 -13.5v-113z" />
    <glyph glyph-name="radical" unicode="&#x221a;" horiz-adv-x="730" 
d="M336 41l247 817q5 13 10 14q2 1 7 1h105q15 0 10 -14l-285 -918q-4 -16 -25 -16h-145q-14 0 -20 18l-123 402q-2 7 -4 9t-8 2h-62q-11 0 -11 12v97q0 14 11 14h148q15 0 20 -15z" />
    <glyph glyph-name="infinity" unicode="&#x221e;" horiz-adv-x="636" 
d="M596 366q0 -229 -167 -229h-6q-69 0 -117 48q-36 -49 -97 -49h-7q-162 0 -162 229v24q0 229 167 229h6q69 0 115 -49q36 50 100 50h6q162 0 162 -229v-24zM494 366v24q0 33 -1.5 54t-7 43.5t-18.5 33t-33 10.5h-5q-28 0 -41 -33t-25 -122q-10 -75 -19 -113q33 -39 80 -39
h5q38 0 51.5 38t13.5 104zM290 488q-35 43 -77 43h-6q-65 0 -65 -142v-24q0 -32 1.5 -52.5t7.5 -43.5t19 -34.5t33 -11.5h5q27 0 40.5 34.5t25.5 125.5q11 78 16 105z" />
    <glyph glyph-name="integral" unicode="&#x222b;" horiz-adv-x="440" 
d="M286 613v-603q0 -91 -44 -125.5t-129 -34.5q-22 0 -60 8q-18 4 -18 16v59q0 17 15 17h45q36 0 47.5 11.5t11.5 48.5v603q0 91 44 125.5t129 34.5q22 0 60 -8q18 -5 18 -16v-59q0 -17 -15 -17h-45q-36 0 -47.5 -11.5t-11.5 -48.5z" />
    <glyph glyph-name="approxequal" unicode="&#x2248;" horiz-adv-x="549" 
d="M460 491q0 -112 -111 -112q-39 0 -70 23l-44 33q-27 21 -42 21q-28 0 -28 -34v-21q0 -16 -14 -16h-57q-14 0 -14 16v21q0 112 112 112q40 0 69 -22l44 -33q26 -20 42 -20q28 0 28 33v21q0 16 14 16h57q14 0 14 -16v-22zM460 291q0 -112 -111 -112q-39 0 -70 23l-44 33
q-27 21 -42 21q-28 0 -28 -34v-21q0 -16 -14 -16h-57q-14 0 -14 16v21q0 112 112 112q40 0 69 -22l44 -33q26 -20 42 -20q28 0 28 33v21q0 16 14 16h57q14 0 14 -16v-22z" />
    <glyph glyph-name="notequal" unicode="&#x2260;" 
d="M354 723q6 20 19 20h81q8 0 13 -5t2 -15l-50 -160h99q20 0 20 -16v-70q0 -16 -20 -16h-130l-44 -140h174q20 0 20 -16v-70q0 -16 -20 -16h-205l-61 -198q-6 -21 -19 -21h-81q-10 0 -14 6.5t-2 14.5l61 198h-84q-20 0 -20 16v70q0 16 20 16h116l43 140h-159q-20 0 -20 16
v70q0 16 20 16h191z" />
    <glyph glyph-name="lessequal" unicode="&#x2264;" 
d="M514 153q0 -14 -12 -14h-110q-9 0 -22 11l-231 202q-23 20 -23 39t23 39l231 202q13 11 22 11h110q12 0 12 -14q0 -7 -6 -12l-260 -226l260 -226q6 -5 6 -12zM548 1q0 -16 -20 -16h-425q-20 0 -20 16v56q0 16 20 16h425q20 0 20 -16v-56z" />
    <glyph glyph-name="greaterequal" unicode="&#x2265;" 
d="M514 391q0 -19 -23 -39l-231 -202q-13 -11 -22 -11h-110q-12 0 -12 14q0 7 6 12l260 226l-260 226q-6 5 -6 12q0 14 12 14h110q9 0 22 -11l231 -202q23 -20 23 -39zM548 1q0 -16 -20 -16h-425q-20 0 -20 16v56q0 16 20 16h425q20 0 20 -16v-56z" />
    <glyph glyph-name="lozenge" unicode="&#x25ca;" horiz-adv-x="554" 
d="M514 363q0 -23 -18 -44l-184 -228q-19 -22 -35 -22t-34 22l-185 228q-18 21 -18 44q0 21 18 44l186 232q14 17 33 17t33 -17l186 -232q18 -23 18 -44zM393 362q0 9 -9 21l-88 113q-10 11 -19 11t-19 -11l-88 -113q-9 -12 -9 -21q0 -10 10 -23l86 -108q12 -15 20 -15
q9 0 20 15l86 108q10 11 10 23z" />
    <glyph glyph-name="commaaccent" unicode="&#xf6c3;" horiz-adv-x="415" 
d="M286 -63q0 -1 -2 -7l-53 -108q-8 -20 -22 -20h-66q-15 0 -15 12q0 5 1 8l27 108q5 19 20 19h96q14 0 14 -12z" />
    <glyph glyph-name="zero.oldstyle" 
d="M576 286q0 -294 -261 -294t-261 294v14q0 295 261 295t261 -295v-14zM437 286v14q0 182 -122 182t-122 -182v-14q0 -181 122 -181t122 181z" />
    <glyph glyph-name="one.oldstyle" horiz-adv-x="462" 
d="M330 20q0 -8 -6 -14t-14 -6h-98q-8 0 -14 6t-6 14v420l-118 -40q-5 -2 -12 -2q-11 0 -11 12v97q0 8 7 11l164 58q12 4 23 4h66q19 0 19 -19v-541z" />
    <glyph glyph-name="two.oldstyle" 
d="M553 412q0 -68 -50 -111.5t-136 -79.5l-27 -11l-27 -11l-24.5 -10t-23 -10.5l-19.5 -10.5t-17 -11.5l-12 -11.5t-8.5 -13t-2.5 -14v-4h319q20 0 20 -18v-76q0 -8 -6 -14t-14 -6h-424q-8 0 -14 6t-6 14v69q0 46 13.5 80t44.5 59t61.5 41t83.5 38q90 38 114 58q26 21 26 47
q0 40 -27 57t-90 17q-71 0 -200 -15h-2q-18 0 -18 20v60q0 13 19 19q93 25 201 25q130 0 188 -44.5t58 -138.5z" />
    <glyph glyph-name="three.oldstyle" 
d="M546 52q0 -107 -69.5 -161.5t-181.5 -54.5q-90 0 -192 25q-19 4 -19 19v62q0 18 18 18h2q138 -14 191 -14q59 0 85.5 26t26.5 80v21q0 101 -92 101h-177q-19 0 -19 19v63q0 19 19 19h177q53 0 72.5 26t19.5 72v16q0 44 -24.5 70t-87.5 26q-54 0 -191 -14h-2q-18 0 -18 18
v62q0 15 19 19q102 25 192 25q116 0 183.5 -49.5t67.5 -156.5v-16q0 -102 -86 -148q41 -22 63.5 -62.5t22.5 -89.5v-21z" />
    <glyph glyph-name="four.oldstyle" 
d="M592 36q0 -8 -6 -14t-14 -6h-74v-159q0 -20 -18 -20h-103q-18 0 -18 20v159h-300q-8 0 -14 6t-6 14v81q0 18 11 32l308 413q13 18 29 18h91q8 0 14 -6t6 -14v-434h74q8 0 14 -6t6 -14v-70zM360 126v254q0 6 -3 6t-7 -6l-175 -243q-3 -3 -3 -6q0 -5 8 -5h180z" />
    <glyph glyph-name="five.oldstyle" 
d="M552 74q0 -116 -64.5 -180.5t-192.5 -64.5q-97 0 -192 25q-19 6 -19 22v59q0 18 18 18h2q111 -14 191 -14q67 0 92.5 34t25.5 101v5q0 62 -40.5 87t-136.5 25h-135q-4 0 -7.5 4.5t-3.5 8.5v2l32 356q2 18 20 18h363q8 0 14 -5.5t6 -13.5v-76q0 -8 -6 -13.5t-14 -5.5h-271
l-15 -166h17q51 0 92 -4.5t84.5 -18.5t72.5 -37t48 -64.5t19 -96.5v-5z" />
    <glyph glyph-name="six.oldstyle" 
d="M580 240q0 -113 -68 -180.5t-190 -67.5q-118 0 -190 76.5t-72 232.5v115q0 177 68.5 256t208.5 79q95 0 185 -19q23 -5 23 -21v-62q0 -21 -19 -21h-4q-82 13 -185 13q-76 0 -107.5 -40t-33.5 -142q59 11 139 11q108 0 176.5 -52.5t68.5 -167.5v-10zM444 240v10
q0 119 -137 119q-56 0 -111 -11v-57q0 -116 32 -158.5t94 -42.5q122 0 122 140z" />
    <glyph glyph-name="seven.oldstyle" horiz-adv-x="568" 
d="M528 486q0 -8 -18 -46l-270 -584q-9 -19 -27 -19h-104q-14 0 -14 15q0 3 2 9l287 598q3 7 -5 7h-308q-20 0 -20 18v77q0 8 6 13.5t14 5.5h417q16 0 28 -12t12 -28v-54z" />
    <glyph glyph-name="eight.oldstyle" 
d="M577 215q0 -112 -73 -167.5t-184 -55.5h-10q-111 0 -183.5 55.5t-72.5 167.5v9q0 99 91 163q-87 57 -87 156v4q0 106 70 155t182 49h10q72 0 127 -19t91 -66t36 -119v-4q0 -98 -88 -156q91 -64 91 -163v-9zM445 539v4q0 106 -125 106h-10q-123 0 -123 -106v-4
q0 -46 26.5 -74.5t81.5 -28.5h41q55 0 82 28.5t27 74.5zM442 215v9q0 43 -26 76.5t-80 33.5h-41q-54 0 -80 -33.5t-26 -76.5v-9q0 -53 31 -86t90 -33h10q59 0 90.5 33.5t31.5 85.5z" />
    <glyph glyph-name="nine.oldstyle" 
d="M569 171q0 -177 -68.5 -256t-208.5 -79q-95 0 -185 19q-23 5 -23 21v62q0 25 23 21q82 -13 185 -13q76 0 107.5 40t33.5 142q-59 -11 -139 -11q-108 0 -176.5 52.5t-68.5 167.5v10q0 113 68 180.5t190 67.5q118 0 190 -76.5t72 -232.5v-115zM433 229v57q0 116 -32 158.5
t-94 42.5q-122 0 -122 -140v-10q0 -119 137 -119q56 0 111 11z" />
    <glyph glyph-name="uni2014.alt" horiz-adv-x="599" 
d="M554 256q0 -18 -19 -18h-471q-19 0 -19 18v63q0 19 19 19h471q19 0 19 -19v-63z" />
    <glyph glyph-name="a.superior" horiz-adv-x="312" 
d="M277 335q0 -14 -14 -14h-49q-13 0 -13 14v4q-38 -23 -77 -23q-43 0 -72 22.5t-29 77.5q0 51 33.5 76t107.5 25h33v22q0 25 -11 34t-36 9q-40 0 -95 -5q-13 0 -13 13v35q0 14 13 15q41 9 95 9q127 0 127 -110v-204zM197 396v65h-33q-36 0 -48 -10.5t-12 -36.5
q0 -19 8.5 -26t29.5 -7q25 0 55 15z" />
    <glyph glyph-name="b.superior" horiz-adv-x="329" 
d="M305 462q0 -69 -35 -107.5t-103 -38.5q-55 0 -115 15q-11 3 -14 6.5t-3 12.5v392q0 15 14 15h53q13 0 13 -15v-96q20 3 52 3q69 0 103.5 -37.5t34.5 -107.5v-42zM225 462v42q0 79 -58 79q-28 0 -52 -3v-193q22 -4 52 -4q58 0 58 79z" />
    <glyph glyph-name="d.superior" horiz-adv-x="329" 
d="M294 350q0 -9 -3 -12.5t-15 -6.5q-58 -15 -114 -15q-68 0 -103 38.5t-35 107.5v42q0 70 34.5 107.5t103.5 37.5q32 0 52 -3v96q0 15 13 15h52q15 0 15 -15v-392zM214 387v193q-24 3 -52 3q-58 0 -58 -79v-42q0 -79 58 -79q30 0 52 4z" />
    <glyph glyph-name="e.superior" horiz-adv-x="327" 
d="M302 472q0 -17 -15 -17l-181 -2q2 -67 65 -67q33 0 93 5q2 0 6 0.5t7 0.5q13 0 13 -11v-37q0 -14 -14 -18q-53 -10 -111 -10q-54 0 -97 34.5t-43 111.5v41q0 69 36.5 107.5t102.5 38.5t102 -39.5t36 -106.5v-31zM164 579q-25 0 -41 -17.5t-17 -48.5h112q0 66 -54 66z" />
    <glyph glyph-name="l.superior" horiz-adv-x="155" 
d="M118 336q0 -15 -14 -15h-53q-14 0 -14 15v406q0 15 14 15h53q14 0 14 -15v-406z" />
    <glyph glyph-name="m.superior" horiz-adv-x="483" 
d="M447 336q0 -15 -14 -15h-52q-14 0 -14 15v192q0 31 -7.5 41.5t-30.5 10.5q-24 0 -49 -13q2 -13 2 -39v-192q0 -15 -14 -15h-53q-14 0 -14 15v192q0 32 -6.5 42t-28.5 10q-15 0 -50 -18v-226q0 -15 -14 -15h-52q-14 0 -14 15v295q0 14 14 14h49q14 0 14 -14v-6
q39 24 78 24q47 0 68 -24q43 24 92 24q54 0 75 -32t21 -89v-192z" />
    <glyph glyph-name="n.superior" horiz-adv-x="337" 
d="M302 336q0 -15 -14 -15h-52q-14 0 -14 15v184q0 37 -8 49t-37 12q-25 0 -62 -20v-225q0 -15 -13 -15h-53q-14 0 -14 15v295q0 14 14 14h50q13 0 13 -14v-5q38 23 90 23q58 0 79 -33t21 -96v-184z" />
    <glyph glyph-name="o.superior" horiz-adv-x="327" 
d="M302 460q0 -64 -36 -104t-102 -40t-102.5 40t-36.5 104v46q0 64 36.5 103.5t102.5 39.5t102 -39.5t36 -103.5v-46zM221 460v46q0 34 -15 53.5t-42 19.5q-28 0 -43 -19.5t-15 -53.5v-46q0 -34 15 -54t43 -20q27 0 42 20t15 54z" />
    <glyph glyph-name="r.superior" horiz-adv-x="214" 
d="M204 595q0 -14 -14 -14q-38 0 -75 -20v-225q0 -15 -14 -15h-52q-14 0 -14 15v295q0 14 14 14h49q14 0 14 -14v-6q34 24 78 24q14 0 14 -14v-40z" />
    <glyph glyph-name="s.superior" horiz-adv-x="279" 
d="M255 407q0 -39 -29.5 -65t-84.5 -26q-59 0 -102 12q-13 5 -13 16v34q0 11 15 11q56 -6 95 -6q38 0 38 24q0 10 -24 26l-77 48q-49 29 -49 81q0 87 110 87q48 0 101 -11q13 -5 13 -16v-32q0 -14 -15 -14q-56 7 -93 7q-36 0 -36 -21q0 -7 22 -20l73 -46q56 -35 56 -89z" />
    <glyph glyph-name="t.superior" horiz-adv-x="231" 
d="M219 334q0 -9 -13 -14q-1 0 -3 -0.5t-3 -0.5q-16 -3 -33 -3q-52 0 -73 18.5t-21 74.5v175q-8 1 -25 4t-24 4q-15 4 -15 14v25q0 14 15 14h49v44q0 11 13 15l57 9q12 0 12 -12v-56h47q15 0 15 -14v-33q0 -14 -15 -14h-47v-175q0 -19 3 -24t15 -5h31q15 0 15 -10v-36z" />
    <glyph glyph-name="h.superior" horiz-adv-x="337" 
d="M302 336q0 -15 -14 -15h-52q-14 0 -14 15v184q0 37 -8 49t-37 12q-25 0 -62 -20v-225q0 -15 -13 -15h-53q-14 0 -14 15v407q0 14 14 14h53q13 0 13 -14v-117q38 23 87 23q58 0 79 -33t21 -96v-184z" />
    <glyph glyph-name="zero.fitted" 
d="M576 334q0 -180 -67 -261t-194 -81t-194 81t-67 261v74q0 180 67 261.5t194 81.5t194 -81.5t67 -261.5v-74zM437 334v74q0 127 -32.5 178.5t-89.5 51.5t-89.5 -51.5t-32.5 -178.5v-74q0 -127 32.5 -178t89.5 -51t89.5 51t32.5 178z" />
    <glyph glyph-name="one.fitted" horiz-adv-x="462" 
d="M330 20q0 -8 -6 -14t-14 -6h-98q-8 0 -14 6t-6 14v583l-118 -40q-5 -2 -12 -2q-11 0 -11 12v97q0 8 7 11l164 58q12 4 23 4h66q19 0 19 -19v-704z" />
    <glyph glyph-name="two.fitted" 
d="M553 568q0 -60 -30.5 -105.5t-94.5 -88.5l-90 -60q-75 -51 -108.5 -94t-33.5 -102v-4h329q20 0 20 -18v-76q0 -8 -6 -14t-14 -6h-424q-8 0 -14 6t-6 14v98q0 79 43 148.5t109 113.5l99 66q59 39 75.5 60.5t16.5 61.5t-27 57t-90 17q-71 0 -200 -15h-2q-18 0 -18 20v60
q0 13 19 19q93 25 201 25q130 0 188 -44.5t58 -138.5z" />
    <glyph glyph-name="three.fitted" 
d="M546 208q0 -107 -69.5 -161.5t-181.5 -54.5q-90 0 -192 25q-19 4 -19 19v62q0 18 18 18h2q138 -14 191 -14q59 0 85.5 26t26.5 80v21q0 101 -92 101h-177q-19 0 -19 19v63q0 19 19 19h177q53 0 72.5 26t19.5 72v16q0 44 -24.5 70t-87.5 26q-54 0 -191 -14h-2
q-18 0 -18 18v62q0 15 19 19q102 25 192 25q116 0 183.5 -49.5t67.5 -156.5v-16q0 -102 -86 -148q41 -22 63.5 -62.5t22.5 -89.5v-21z" />
    <glyph glyph-name="four.fitted" 
d="M592 199q0 -8 -6 -14t-14 -6h-74v-159q0 -20 -18 -20h-103q-18 0 -18 20v159h-300q-8 0 -14 6t-6 14v81q0 18 11 32l308 413q13 18 29 18h91q8 0 14 -6t6 -14v-434h74q8 0 14 -6t6 -14v-70zM360 289v254q0 6 -3 6t-7 -6l-175 -243q-3 -3 -3 -6q0 -5 8 -5h180z" />
    <glyph glyph-name="five.fitted" 
d="M552 237q0 -116 -64.5 -180.5t-192.5 -64.5q-97 0 -192 25q-19 6 -19 22v59q0 18 18 18h2q111 -14 191 -14q67 0 92.5 34t25.5 101v5q0 62 -40.5 87t-136.5 25h-135q-4 0 -7.5 4.5t-3.5 8.5v2l32 356q2 18 20 18h363q8 0 14 -5.5t6 -13.5v-76q0 -8 -6 -13.5t-14 -5.5
h-271l-15 -166h17q51 0 92 -4.5t84.5 -18.5t72.5 -37t48 -64.5t19 -96.5v-5z" />
    <glyph glyph-name="six.fitted" 
d="M580 240q0 -113 -68 -180.5t-190 -67.5q-118 0 -190 76.5t-72 232.5v115q0 177 68.5 256t208.5 79q95 0 185 -19q23 -5 23 -21v-62q0 -21 -19 -21h-4q-82 13 -185 13q-76 0 -107.5 -40t-33.5 -142q59 11 139 11q108 0 176.5 -52.5t68.5 -167.5v-10zM444 240v10
q0 119 -137 119q-56 0 -111 -11v-57q0 -116 32 -158.5t94 -42.5q122 0 122 140z" />
    <glyph glyph-name="seven.fitted" horiz-adv-x="568" 
d="M528 649q0 -8 -18 -46l-270 -584q-9 -19 -27 -19h-104q-14 0 -14 15q0 3 2 9l287 598v2q0 5 -5 5h-308q-20 0 -20 18v77q0 8 6 13.5t14 5.5h417q16 0 28 -11.5t12 -28.5v-54z" />
    <glyph glyph-name="eight.fitted" 
d="M577 215q0 -112 -73 -167.5t-184 -55.5h-10q-111 0 -183.5 55.5t-72.5 167.5v9q0 99 91 163q-87 57 -87 156v4q0 106 70 155t182 49h10q72 0 127 -19t91 -66t36 -119v-4q0 -98 -88 -156q91 -64 91 -163v-9zM445 539v4q0 106 -125 106h-10q-123 0 -123 -106v-4
q0 -46 26.5 -74.5t81.5 -28.5h41q55 0 82 28.5t27 74.5zM442 215v9q0 43 -26 76.5t-80 33.5h-41q-54 0 -80 -33.5t-26 -76.5v-9q0 -53 31 -86t90 -33h10q59 0 90.5 33.5t31.5 85.5z" />
    <glyph glyph-name="nine.fitted" 
d="M569 327q0 -177 -68.5 -256t-208.5 -79q-95 0 -185 19q-23 5 -23 21v62q0 21 19 21h4q82 -13 185 -13q76 0 107.5 40t33.5 142q-59 -11 -139 -11q-108 0 -176.5 52.5t-68.5 167.5v10q0 113 68 180.5t190 67.5q118 0 190 -76.5t72 -232.5v-115zM433 385v57
q0 116 -32 158.5t-94 42.5q-122 0 -122 -140v-10q0 -119 137 -119q56 0 111 11z" />
    <glyph glyph-name="zero.taboldstyle" 
d="M576 286q0 -294 -261 -294t-261 294v14q0 295 261 295t261 -295v-14zM437 286v14q0 182 -122 182t-122 -182v-14q0 -181 122 -181t122 181z" />
    <glyph glyph-name="one.taboldstyle" 
d="M535 0h-406q-8 0 -14 6t-6 14v76q0 18 20 18h134v329l-131 -40q-5 -2 -12 -2q-11 0 -11 12v94q0 8 7 11l177 58q12 4 23 4h66q19 0 19 -19v-447h134q20 0 20 -18v-76q0 -8 -6 -14t-14 -6z" />
    <glyph glyph-name="two.taboldstyle" 
d="M553 412q0 -68 -50 -111.5t-136 -79.5l-27 -11l-27 -11l-24.5 -10t-23 -10.5l-19.5 -10.5t-17 -11.5l-12 -11.5t-8.5 -13t-2.5 -14v-4h319q20 0 20 -18v-76q0 -8 -6 -14t-14 -6h-424q-8 0 -14 6t-6 14v69q0 46 13.5 80t44.5 59t61.5 41t83.5 38q90 38 114 58q26 21 26 47
q0 40 -27 57t-90 17q-71 0 -200 -15h-2q-18 0 -18 20v60q0 13 19 19q93 25 201 25q130 0 188 -44.5t58 -138.5z" />
    <glyph glyph-name="three.taboldstyle" 
d="M546 52q0 -107 -69.5 -161.5t-181.5 -54.5q-90 0 -192 25q-19 4 -19 19v62q0 18 18 18h2q138 -14 191 -14q59 0 85.5 26t26.5 80v21q0 101 -92 101h-177q-19 0 -19 19v63q0 19 19 19h177q53 0 72.5 26t19.5 72v16q0 44 -24.5 70t-87.5 26q-54 0 -191 -14h-2q-18 0 -18 18
v62q0 15 19 19q102 25 192 25q116 0 183.5 -49.5t67.5 -156.5v-16q0 -102 -86 -148q41 -22 63.5 -62.5t22.5 -89.5v-21z" />
    <glyph glyph-name="four.taboldstyle" 
d="M592 36q0 -8 -6 -14t-14 -6h-74v-159q0 -20 -18 -20h-103q-18 0 -18 20v159h-300q-8 0 -14 6t-6 14v81q0 18 11 32l308 413q13 18 29 18h91q8 0 14 -6t6 -14v-434h74q8 0 14 -6t6 -14v-70zM360 126v254q0 6 -3 6t-7 -6l-175 -243q-3 -3 -3 -6q0 -5 8 -5h180z" />
    <glyph glyph-name="five.taboldstyle" 
d="M552 74q0 -116 -64.5 -180.5t-192.5 -64.5q-97 0 -192 25q-19 6 -19 22v59q0 18 18 18h2q111 -14 191 -14q67 0 92.5 34t25.5 101v5q0 62 -40.5 87t-136.5 25h-135q-4 0 -7.5 4.5t-3.5 8.5v2l32 356q2 18 20 18h363q8 0 14 -5.5t6 -13.5v-76q0 -8 -6 -13.5t-14 -5.5h-271
l-15 -166h17q51 0 92 -4.5t84.5 -18.5t72.5 -37t48 -64.5t19 -96.5v-5z" />
    <glyph glyph-name="six.taboldstyle" 
d="M580 240q0 -113 -68 -180.5t-190 -67.5q-118 0 -190 76.5t-72 232.5v115q0 177 68.5 256t208.5 79q95 0 185 -19q23 -5 23 -21v-62q0 -21 -19 -21h-4q-82 13 -185 13q-76 0 -107.5 -40t-33.5 -142q59 11 139 11q108 0 176.5 -52.5t68.5 -167.5v-10zM444 240v10
q0 119 -137 119q-56 0 -111 -11v-57q0 -116 32 -158.5t94 -42.5q122 0 122 140z" />
    <glyph glyph-name="seven.taboldstyle" 
d="M553 486q0 -8 -18 -46l-270 -584q-9 -19 -27 -19h-104q-14 0 -14 15q0 3 2 9l287 598q3 7 -5 7h-308q-20 0 -20 18v77q0 8 6 13.5t14 5.5h417q17 0 28.5 -12t11.5 -28v-54z" />
    <glyph glyph-name="eight.taboldstyle" 
d="M577 215q0 -112 -73 -167.5t-184 -55.5h-10q-111 0 -183.5 55.5t-72.5 167.5v9q0 99 91 163q-87 57 -87 156v4q0 106 70 155t182 49h10q72 0 127 -19t91 -66t36 -119v-4q0 -98 -88 -156q91 -64 91 -163v-9zM445 539v4q0 106 -125 106h-10q-123 0 -123 -106v-4
q0 -46 26.5 -74.5t81.5 -28.5h41q55 0 82 28.5t27 74.5zM442 215v9q0 43 -26 76.5t-80 33.5h-41q-54 0 -80 -33.5t-26 -76.5v-9q0 -53 31 -86t90 -33h10q59 0 90.5 33.5t31.5 85.5z" />
    <glyph glyph-name="nine.taboldstyle" 
d="M569 171q0 -177 -68.5 -256t-208.5 -79q-95 0 -185 19q-23 5 -23 21v62q0 25 23 21q82 -13 185 -13q76 0 107.5 40t33.5 142q-59 -11 -139 -11q-108 0 -176.5 52.5t-68.5 167.5v10q0 113 68 180.5t190 67.5q118 0 190 -76.5t72 -232.5v-115zM433 229v57q0 116 -32 158.5
t-94 42.5q-122 0 -122 -140v-10q0 -119 137 -119q56 0 111 11z" />
    <glyph glyph-name="zero.denominator" horiz-adv-x="347" 
d="M320 187q0 -191 -147 -191q-146 0 -146 191v39q0 192 146 192q147 0 147 -192v-39zM233 187v39q0 119 -60 119t-60 -119v-39q0 -118 60 -118t60 118z" />
    <glyph glyph-name="one.denominator" horiz-adv-x="254" 
d="M32 380l81 31q6 3 21 3h36q17 0 17 -17v-380q0 -7 -5 -12t-12 -5h-53q-7 0 -12 5t-5 12v307l-56 -19q-21 -7 -21 11v53q0 7 9 11z" />
    <glyph glyph-name="two.denominator" horiz-adv-x="347" 
d="M308 313q0 -60 -71 -109l-48 -33q-37 -25 -54.5 -47t-19.5 -50h172q17 0 17 -16v-41q0 -7 -5 -12t-12 -5h-229q-7 0 -12 5t-5 12v53q0 43 24.5 82.5t60.5 63.5l54 36q26 17 36 29.5t10 31.5t-13 26.5t-44 7.5q-42 0 -108 -8q-7 0 -12 5t-5 12v32q0 12 15 16h-1
q49 14 111 14q73 0 106 -25.5t33 -79.5z" />
    <glyph glyph-name="three.denominator" horiz-adv-x="347" 
d="M304 118q0 -61 -39 -91.5t-103 -30.5q-48 0 -104 13q-16 4 -16 17v33q0 16 18 16q69 -8 102 -8q55 0 55 51v12q0 49 -44 49h-95q-17 0 -17 16v34q0 16 17 16h95q44 0 44 47v9q0 46 -55 46q-26 0 -104 -8q-16 0 -16 16v33q0 12 16 16q53 14 104 14q65 0 103.5 -28
t38.5 -89v-9q0 -55 -41 -80q41 -27 41 -82v-12z" />
    <glyph glyph-name="four.denominator" horiz-adv-x="347" 
d="M329 113q0 -7 -5 -12t-11 -5h-35v-79q0 -17 -16 -17h-56q-15 0 -15 17v79h-157q-6 0 -11 5t-5 12v44q0 11 8 22l166 223q10 12 20 12h49q7 0 12 -5t5 -12v-229h35q6 0 11 -5t5 -12v-38zM192 168v120l-87 -120h87z" />
    <glyph glyph-name="five.denominator" horiz-adv-x="347" 
d="M308 134q0 -66 -36.5 -102t-109.5 -36q-55 0 -104 13q-16 5 -16 18v32q0 16 18 16q57 -8 102 -8q33 0 45.5 17.5t12.5 52.5q0 30 -20.5 42.5t-68.5 12.5h-73q-12 0 -12 13l17 195q4 14 17 14h196q7 0 12 -5t5 -12v-41q0 -16 -17 -16h-141l-7 -77h3q36 0 64 -4.5t55.5 -17
t42.5 -39t15 -65.5v-3z" />
    <glyph glyph-name="six.denominator" horiz-adv-x="347" 
d="M322 136q0 -64 -38 -102t-107 -38q-67 0 -107 43t-40 130v62q0 98 38.5 142.5t116.5 44.5q58 0 101 -10q18 -5 18 -18v-33q0 -22 -29 -17q-40 7 -90 7q-36 0 -52.5 -19.5t-17.5 -65.5q36 4 69 4q61 0 99.5 -29.5t38.5 -94.5v-6zM237 136v6q0 58 -68 58q-27 0 -54 -5v-26
q0 -59 16 -81t46 -22q60 0 60 70z" />
    <glyph glyph-name="seven.denominator" horiz-adv-x="312" 
d="M284 330l-147 -316q-8 -14 -19 -14h-56q-9 0 -12.5 6.5t-0.5 13.5l153 320h-161q-17 0 -17 16v41q0 7 5 12t12 5h225q28 0 28 -28v-21q0 -16 -10 -35z" />
    <glyph glyph-name="eight.denominator" horiz-adv-x="347" 
d="M320 122q0 -64 -40.5 -95t-103.5 -31h-5q-63 0 -103.5 31t-40.5 95v5q0 54 44 88q-43 30 -43 87q0 59 39.5 87.5t103.5 28.5h5q63 0 103 -28.5t40 -89.5q0 -53 -44 -85q45 -33 45 -88v-5zM236 122v5q0 21 -12.5 37.5t-38.5 16.5h-23q-26 0 -38.5 -16.5t-12.5 -37.5v-5
q0 -26 15.5 -42t44.5 -16h5q29 0 44.5 16t15.5 42zM177 351h-6q-61 0 -61 -54q0 -49 52 -49h23q53 0 53 49q0 54 -61 54z" />
    <glyph glyph-name="nine.denominator" horiz-adv-x="347" 
d="M316 183q0 -99 -38.5 -143t-116.5 -44q-56 0 -101 10q-18 5 -18 18v33q0 20 20 17q47 -7 99 -7q37 0 53 18.5t17 65.5q-24 -4 -69 -4q-61 0 -99.5 30t-38.5 95v6q0 64 38 102t107 38q67 0 107 -43t40 -130v-62zM231 219v26q0 59 -16 81t-46 22q-60 0 -60 -70v-6
q0 -58 68 -58q27 0 54 5z" />
    <glyph glyph-name="zero.numerator" horiz-adv-x="347" 
d="M320 527q0 -191 -147 -191q-146 0 -146 191v39q0 192 146 192q147 0 147 -192v-39zM233 527v39q0 119 -60 119t-60 -119v-39q0 -118 60 -118t60 118z" />
    <glyph glyph-name="one.numerator" horiz-adv-x="254" 
d="M32 720l81 31q6 3 21 3h36q17 0 17 -17v-380q0 -7 -5 -12t-12 -5h-53q-7 0 -12 5t-5 12v307l-56 -19q-21 -7 -21 11v53q0 7 9 11z" />
    <glyph glyph-name="two.numerator" horiz-adv-x="347" 
d="M58 744q49 14 111 14q73 0 106 -25.5t33 -79.5q0 -60 -71 -109l-48 -33q-41 -28 -56.5 -48t-17.5 -49h172q17 0 17 -16v-41q0 -17 -17 -17h-229q-7 0 -12 5t-5 12v53q0 89 85 146l54 36q26 17 36 29.5t10 31.5t-13 26.5t-44 7.5q-42 0 -108 -8q-10 -1 -13.5 4t-3.5 13v32
q0 12 14 16z" />
    <glyph glyph-name="three.numerator" horiz-adv-x="347" 
d="M304 458q0 -61 -39 -91.5t-103 -30.5q-48 0 -104 13q-16 4 -16 17v33q0 19 18 16q69 -8 102 -8q55 0 55 51v12q0 49 -44 49h-95q-17 0 -17 16v34q0 16 17 16h95q44 0 44 47v9q0 46 -55 46q-26 0 -104 -8q-16 0 -16 16v33q0 12 16 16q53 14 104 14q65 0 103.5 -28
t38.5 -89v-9q0 -55 -41 -80q41 -27 41 -82v-12z" />
    <glyph glyph-name="four.numerator" horiz-adv-x="347" 
d="M329 453q0 -7 -5 -12t-11 -5h-35v-79q0 -17 -16 -17h-56q-15 0 -15 17v79h-157q-6 0 -11 5t-5 12v44q0 11 8 22l166 223q10 12 20 12h49q7 0 12 -5t5 -12v-229h35q6 0 11 -5t5 -12v-38zM192 508v120l-87 -120h87z" />
    <glyph glyph-name="five.numerator" horiz-adv-x="347" 
d="M308 474q0 -66 -36.5 -102t-109.5 -36q-55 0 -104 13q-16 5 -16 18v32q0 16 18 16q57 -8 102 -8q33 0 45.5 17.5t12.5 52.5q0 30 -20.5 42.5t-68.5 12.5h-73q-12 0 -12 13l17 195q4 14 17 14h196q7 0 12 -5t5 -12v-41q0 -16 -17 -16h-141l-7 -77h3q36 0 64 -4.5t55.5 -17
t42.5 -39t15 -65.5v-3z" />
    <glyph glyph-name="six.numerator" horiz-adv-x="347" 
d="M322 476q0 -64 -38 -102t-107 -38q-67 0 -107 43t-40 130v62q0 98 38.5 142.5t116.5 44.5q58 0 101 -10q18 -5 18 -18v-33q0 -22 -29 -17q-40 7 -90 7q-36 0 -52.5 -19.5t-17.5 -65.5q36 4 69 4q61 0 99.5 -29.5t38.5 -94.5v-6zM237 476v6q0 58 -68 58q-27 0 -54 -5v-26
q0 -59 16 -81t46 -22q60 0 60 70z" />
    <glyph glyph-name="seven.numerator" horiz-adv-x="312" 
d="M284 670l-147 -316q-8 -14 -19 -14h-56q-9 0 -12.5 6.5t-0.5 13.5l153 320h-161q-17 0 -17 16v41q0 7 5 12t12 5h225q28 0 28 -28v-21q0 -16 -10 -35z" />
    <glyph glyph-name="eight.numerator" horiz-adv-x="347" 
d="M320 462q0 -64 -40.5 -95t-103.5 -31h-5q-63 0 -103.5 31t-40.5 95v5q0 54 44 88q-43 30 -43 87q0 59 39.5 87.5t103.5 28.5h5q63 0 103 -28.5t40 -89.5q0 -53 -44 -85q45 -33 45 -88v-5zM236 462v5q0 21 -12.5 37.5t-38.5 16.5h-23q-26 0 -38.5 -16.5t-12.5 -37.5v-5
q0 -26 15.5 -42t44.5 -16h5q29 0 44.5 16t15.5 42zM177 691h-6q-61 0 -61 -54q0 -49 52 -49h23q53 0 53 49q0 54 -61 54z" />
    <glyph glyph-name="nine.numerator" horiz-adv-x="347" 
d="M316 523q0 -99 -38.5 -143t-116.5 -44q-56 0 -101 10q-18 5 -18 18v33q0 20 20 17q47 -7 99 -7q37 0 53 18.5t17 65.5q-24 -4 -69 -4q-61 0 -99.5 30t-38.5 95v6q0 64 38 102t107 38q67 0 107 -43t40 -130v-62zM231 559v26q0 59 -16 81t-46 22q-60 0 -60 -70v-6
q0 -58 68 -58q27 0 54 5z" />
    <glyph glyph-name="i.dot" horiz-adv-x="268" 
d="M203 659q0 -8 -6 -14t-14 -6h-97q-8 0 -14.5 6t-6.5 14v88q0 8 6.5 14t14.5 6h97q8 0 14 -6t6 -14v-88zM200 21q0 -8 -6 -14.5t-14 -6.5h-92q-8 0 -14 6.5t-6 14.5v523q0 8 6 14t14 6h92q8 0 14 -6t6 -14v-523z" />
    </font>
</defs>
</svg>
