<?xml version="1.0" standalone="no"?>
<!DOCTYPE svg PUBLIC "-//W3C//DTD SVG 1.1//EN" "http://www.w3.org/Graphics/SVG/1.1/DTD/svg11.dtd" >
<svg>
<metadata>
Created by FontForge 20110222 at Sat Oct 18 23:19:09 2014
 By deploy user
Copyright (c) Boutros International, 2004. All rights reserved.
</metadata>
<defs>
<font id="GESSTwoLight-Light" horiz-adv-x="0" >
  <font-face 
    font-family="GE SS Two Light"
    font-weight="300"
    font-stretch="normal"
    units-per-em="1000"
    panose-1="2 10 5 3 2 1 2 2 2 4"
    ascent="800"
    descent="-200"
    bbox="-114 -403 1277 969"
    underline-thickness="50"
    underline-position="-50"
    unicode-range="U+0020-FEFF"
  />
<missing-glyph horiz-adv-x="500" 
d="M63 0h375v750h-375v-750zM125 63v625h250v-625h-250z" />
    <glyph glyph-name="alefmaddaabovearabic" unicode="&#x627;&#x653;" horiz-adv-x="215" 
d="M161 0v647h-70v-647h70zM243 726l-17 23q-24 -27 -44 -27q-13 0 -46 16q-36 17 -52 17q-34 0 -60 -39l17 -23q24 29 41 29q15 0 49 -17t50 -17q30 0 62 38z" />
    <glyph glyph-name="alefhamzaabovearabic" unicode="&#x627;&#x654;" horiz-adv-x="215" 
d="M161 0v647h-70v-647h70zM224 791q-13 64 -78 64q-41 0 -61.5 -24t-20.5 -64q0 -20 7 -35h-40v-40h191v40h-107q-10 14 -10 36q0 54 41 54q31 0 37 -35z" />
    <glyph glyph-name="wawhamzaabovearabic" unicode="&#x648;&#x654;" horiz-adv-x="484" 
d="M441 234q0 97 -53 160t-135 63q-85 0 -138 -61.5t-53 -158.5t54 -159.5t137 -62.5q85 0 118 57q-3 -169 -141 -169v-67q110 6 160.5 66t50.5 183v149zM373 234q0 -67 -32.5 -111.5t-86.5 -44.5t-88.5 45.5t-34.5 114.5q0 67 32.5 112t85.5 45q55 0 89.5 -46t34.5 -115z
M374 634q-16 79 -96 79q-46 0 -73 -28.5t-27 -79.5q0 -23 8 -44h-49v-49h236v49h-132q-12 18 -12 44q0 67 49 67q39 0 48 -43z" />
    <glyph glyph-name="alefhamzabelowarabic" unicode="&#x627;&#x655;" horiz-adv-x="225" 
d="M171 0v647h-70v-647h70zM216 -105q-14 63 -78 63q-40 0 -63 -26q-18 -22 -18 -61q0 -20 6 -35h-39v-40h192v40h-108q-10 13 -10 35q0 54 41 54q30 0 38 -35z" />
    <glyph glyph-name="yehhamzaabovearabic" unicode="&#x64a;&#x654;" horiz-adv-x="729" 
d="M270 492q-16 78 -96 78q-47 0 -73.5 -29t-26.5 -79q0 -22 8 -43h-49v-49h237v49h-133q-12 18 -12 43q0 68 49 68q39 0 48 -44zM686 176v93h-245q43 172 207 172v61q-134 0 -209 -76t-85 -228h263q0 -136 -69.5 -216t-188.5 -80q-110 0 -178 69.5t-77 192.5q-1 10 -1 108
h-71v-96q0 -145 93.5 -243.5t230.5 -98.5h6q138 0 231 98.5t93 243.5z" />
    <glyph glyph-name="shaddadammatanarabic" unicode="&#x64c;&#x651;" arabic-form="isolated" 
d="M162 919q0 19 -15 34t-36 15q-19 0 -30.5 -13t-11.5 -31q0 -33 31 -60q-31 -29 -81 -32q21 27 21 52q0 19 -11 31.5t-26 12.5q-13 0 -27 -12q8 3 16 3q30 0 30 -38q0 -28 -20 -50q5 -11 6 -17q69 0 111.5 35.5t42.5 69.5zM195 744l-15 76l-21 -4l13 -68q1 -3 1 -10
q0 -22 -18 -22q-31 0 -38 37l-10 51l-22 -6l10 -51q2 -10 2 -15q0 -14 -8.5 -25t-21.5 -11q-15 0 -20 23l-14 68l-21 -6l16 -76q8 -36 37 -36q44 0 44 66q19 -45 47 -45q20 0 31 9.5t11 23.5q0 7 -3 21zM111 872q-28 16 -28 51q0 13 9.5 23t21.5 10t22 -10t10 -23
q0 -28 -35 -51z" />
    <glyph glyph-name="shaddakasratanarabic" unicode="&#x64d;&#x651;" arabic-form="isolated" 
d="M191 864l-15 78l-21 -6l13 -67q1 -4 1 -11q0 -22 -20 -22q-27 0 -35 38l-11 51l-22 -6l10 -50q2 -12 2 -16q0 -14 -8 -25t-21 -11q-16 0 -21 23l-13 67l-22 -4l16 -77q8 -36 37 -36q44 0 44 67q21 -46 47 -46q19 0 30.5 10t11.5 24q0 7 -3 19zM220 798l-146 -41
q-21 -9 -32 -30q21 6 53 14t48.5 12.5t35.5 11.5t28.5 15t12.5 18zM211 738l-145 -41q-23 -9 -32 -30q22 6 53 14t48 12.5t35.5 11t28 14.5t12.5 19z" />
    <glyph glyph-name="shaddafathaarabic" unicode="&#x64e;&#x651;" arabic-form="isolated" 
d="M170 878l-145 -40q-22 -9 -31 -29q20 5 51.5 13t48 12t35.5 11t28.5 15t12.5 18zM185 739l-15 78l-21 -6l13 -67q1 -3 1 -9q0 -23 -21 -23q-27 0 -35 38l-10 50l-22 -5l10 -51q1 -5 1 -13q0 -15 -8 -27t-21 -12q-15 0 -21 23l-13 68l-21 -5l16 -76q8 -36 36 -36
q45 0 45 66q19 -46 47 -46q19 0 30 10t11 24q0 3 -2 19z" />
    <glyph glyph-name="shaddadammaarabicX" unicode="&#x64f;&#x651;" arabic-form="isolated" 
d="M147 919q0 21 -14.5 35.5t-35.5 14.5q-19 0 -30.5 -13t-11.5 -32q0 -34 30 -59q-34 -34 -84 -34h-13q12 -14 15 -15q64 0 104 34.5t40 68.5zM185 747l-15 77l-21 -5l13 -67q1 -3 1 -9q0 -23 -21 -23q-27 0 -35 37l-10 50l-22 -4l10 -51q1 -5 1 -13q0 -15 -8.5 -27.5
t-20.5 -12.5q-17 0 -21 24l-13 68l-21 -5l16 -76q7 -37 36 -37q45 0 45 67q19 -46 47 -46q19 0 30 9.5t11 23.5q0 4 -2 20zM97 872q-28 18 -28 51q0 14 9 23.5t23 9.5q12 0 21.5 -9.5t9.5 -23.5q0 -28 -35 -51z" />
    <glyph glyph-name="shaddakasraarabic" unicode="&#x650;&#x651;" arabic-form="isolated" 
d="M179 796l-16 78l-21 -6l14 -67q1 -4 1 -11q0 -21 -21 -21q-26 0 -35 38l-11 49l-21 -4l10 -51q2 -10 2 -15q0 -14 -8.5 -25.5t-21.5 -11.5q-16 0 -21 23l-13 68l-21 -5l15 -76q7 -36 37 -36h10q35 8 35 66q19 -46 46 -46q20 0 31 10t11 24q0 3 -2 19zM205 737l-146 -39
q-20 -10 -31 -30q19 5 53 13t49 12t34.5 11t28.5 15t12 18z" />
    <glyph glyph-name="alefwithfathatanfinal" unicode="&#xfe8e;&#x64b;" horiz-adv-x="302" arabic-form="final" 
d="M331 0v70q-105 0 -133 21t-28 110v446h-72v-488q0 -72 38 -115.5t96 -43.5h99zM227 805l-146 -39q-22 -10 -31 -30l52 13t48 12.5t35.5 11t29 14.5t12.5 18zM218 745l-145 -39q-21 -10 -32 -30q20 5 52.5 13t48.5 12t35 11t28.5 15t12.5 18z" />
    <glyph glyph-name="alefwithfathatanisolated" unicode="&#x627;&#x64b;" horiz-adv-x="215" arabic-form="isolated" 
d="M161 0v647h-70v-647h70zM227 805l-146 -39q-22 -10 -31 -30l52 13t48 12.5t35.5 11t29 14.5t12.5 18zM218 745l-145 -39q-21 -10 -32 -30q20 5 52.5 13t48.5 12t35 11t28.5 15t12.5 18z" />
    <glyph glyph-name="allahisolated" unicode="&#xfedf;&#xfee0;&#xfeea;" horiz-adv-x="1187" arabic-form="isolated" 
d="M838 790l-16 78l-21 -6l14 -67q1 -4 1 -11q0 -22 -20 -22q-28 0 -36 38l-10 51l-22 -6l10 -50q2 -10 2 -15q0 -14 -8.5 -25.5t-21.5 -11.5q-16 0 -21 23l-12 67l-22 -4l15 -77q8 -36 37 -36q45 0 45 67q19 -46 46 -46q20 0 31.5 10t11.5 24q0 7 -3 19zM1144 647h-71v-440
q0 -80 -22 -108.5t-77 -28.5h-190q20 42 20 106v471h-70v-440q0 -79 -22 -108.5t-78 -29.5h-72q-60 0 -94 42t-34 117v321h-212q-85 0 -137.5 -67.5t-52.5 -174.5q0 -100 51 -169t127 -69q108 0 153 77q44 -146 191 -146h443q147 0 147 176v471zM362 320q0 -196 -129 -196
q-57 0 -94 54.5t-37 132.5q0 80 37 133t96 53h127v-177z" />
    <glyph glyph-name="lamalefmaddaaboveisolatedarabi" unicode="&#xfedf;&#xfe82;" horiz-adv-x="547" arabic-form="isolated" 
d="M504 647h-70v-440q0 -80 -22.5 -109t-77.5 -29h-30l-126 501h-76l129 -501h-163v-69h289q147 0 147 176v471zM243 669l-17 23q-24 -27 -44 -27q-5 0 -46.5 16.5t-51.5 16.5q-34 0 -60 -39l17 -23q24 29 41 29q9 0 49.5 -17t49.5 -17q30 0 62 38z" />
    <glyph glyph-name="lamalefmaddaabovefinalarabic" unicode="&#xfee0;&#xfe82;" horiz-adv-x="635" arabic-form="final" 
d="M654 0v70h-173q21 40 21 106v471h-71v-440q0 -80 -22 -109t-78 -29h-29l-127 501h-75l129 -501h-163v-69h588zM243 669l-17 23q-24 -27 -44 -27q-5 0 -46.5 16.5t-51.5 16.5q-34 0 -60 -39l17 -23q24 29 41 29l99 -34q30 0 62 38z" />
    <glyph glyph-name="lamalefhamzaaboveisolatedarabi" unicode="&#xfedf;&#xfe84;" horiz-adv-x="547" arabic-form="isolated" 
d="M504 647h-70v-440q0 -80 -22.5 -109t-77.5 -29h-30l-126 501h-76l129 -501h-163v-69h289q147 0 147 176v471zM224 742q-13 64 -78 64q-41 0 -61.5 -24t-20.5 -64q0 -20 7 -35h-40v-40h191v40h-107q-10 14 -10 36q0 54 41 54q31 0 37 -35z" />
    <glyph glyph-name="lamalefhamzaabovefinalarabicX" unicode="&#xfee0;&#xfe84;" horiz-adv-x="635" arabic-form="final" 
d="M654 0v70h-173q21 40 21 106v471h-71v-440q0 -80 -22 -109t-78 -29h-29l-127 501h-75l129 -501h-163v-69h588zM224 742q-13 64 -78 64q-41 0 -61.5 -24t-20.5 -64q0 -20 7 -35h-40v-40h191v40h-107q-10 14 -10 36q0 54 41 54q31 0 37 -35z" />
    <glyph glyph-name="lamalefhamzabelowisolatedarabi" unicode="&#xfedf;&#xfe88;" horiz-adv-x="547" arabic-form="isolated" 
d="M504 647h-70v-440q0 -69 -15 -96q-23 -42 -85 -42h-30l-126 501h-76l129 -501h-163v-69h289q147 0 147 176v471zM206 -105q-14 63 -78 63q-40 0 -63 -26q-18 -22 -18 -61q0 -20 6 -35h-39v-40h192v40h-108q-10 13 -10 35q0 54 41 54q30 0 38 -35z" />
    <glyph glyph-name="lamalefhamzabelowfinalarabicX" unicode="&#xfee0;&#xfe88;" horiz-adv-x="635" arabic-form="final" 
d="M654 0v70h-173q21 40 21 106v471h-71v-440q0 -80 -22 -109t-78 -29h-29l-127 501h-75l129 -501h-163v-69h588zM206 -105q-14 63 -78 63q-38 0 -59.5 -22.5t-21.5 -64.5q0 -20 6 -35h-39v-40h192v40h-108q-10 13 -10 35q0 54 41 54q30 0 38 -35z" />
    <glyph glyph-name="lamalefisolatedarabic" unicode="&#xfedf;&#xfe8e;" horiz-adv-x="547" arabic-form="isolated" 
d="M504 647h-70v-440q0 -69 -15 -96q-23 -42 -85 -42h-30l-126 501h-76l129 -501h-163v-69h289q147 0 147 176v471z" />
    <glyph glyph-name="lamaleffinalarabic" unicode="&#xfee0;&#xfe8e;" horiz-adv-x="637" arabic-form="final" 
d="M656 0v70h-173q21 40 21 106v471h-71v-440q0 -80 -22 -109t-78 -29h-29l-127 501h-75l129 -501h-163v-69h588z" />
    <glyph glyph-name="hamzaarabic" unicode="&#x621;" horiz-adv-x="430" arabic-form="isolated" 
d="M387 173q-24 109 -136 109q-71 0 -108 -45q-33 -41 -33 -106q0 -33 12 -61h-70v-70h334v70h-188q-16 23 -16 61q0 95 71 95q55 0 65 -61z" />
    <glyph glyph-name="alefarabic" unicode="&#x627;" horiz-adv-x="215" arabic-form="isolated" 
d="M161 0v647h-70v-647h70z" />
    <glyph glyph-name="beharabic" unicode="&#x628;" horiz-adv-x="816" arabic-form="isolated" 
d="M773 454h-70v-247q0 -80 -22 -108.5t-77 -28.5h-290q-212 0 -212 221v164h-70v-164q0 -291 288 -291h307q146 0 146 176v278zM458 -152v85h-71v-85h71z" />
    <glyph glyph-name="tehmarbutaarabic" unicode="&#x629;" horiz-adv-x="502" arabic-form="isolated" 
d="M352 526v85h-71v-85h71zM221 526v85h-71v-85h71zM459 232q0 101 -54 164q-59 66 -158 66t-157 -67q-58 -64 -58 -164q0 -103 56 -165q58 -66 158 -66q98 0 157 68q56 65 56 164zM379 238q0 -179 -133 -179q-67 0 -103 52q-30 43 -30 115q0 76 30 123q36 54 108 54
q66 0 101 -50q27 -43 27 -115z" />
    <glyph glyph-name="teharabic" unicode="&#x62a;" horiz-adv-x="816" arabic-form="isolated" 
d="M507 455v85h-71v-85h71zM376 455v85h-71v-85h71zM773 454h-70v-247q0 -80 -22 -108.5t-77 -28.5h-290q-212 0 -212 221v164h-70v-164q0 -291 288 -291h307q146 0 146 176v278z" />
    <glyph glyph-name="theharabic" unicode="&#x62b;" horiz-adv-x="816" arabic-form="isolated" 
d="M443 565v85h-71v-85h71zM509 455v85h-71v-85h71zM378 455v85h-72v-85h72zM773 454h-70v-247q0 -80 -22 -108.5t-77 -28.5h-290q-212 0 -212 221v164h-70v-164q0 -291 288 -291h307q146 0 146 176v278z" />
    <glyph glyph-name="jeemarabic" unicode="&#x62c;" horiz-adv-x="514" arabic-form="isolated" 
d="M470 243q1 10 1 30q0 142 -57.5 215.5t-170.5 73.5q-51 0 -74 -10v-61q27 14 58 14q158 0 173 -191h-144q-106 0 -165 -71.5t-59 -168.5q0 -108 68.5 -173.5t176.5 -65.5h104v74h-104q-79 0 -124 43.5t-45 116.5q0 79 46.5 126.5t122.5 47.5h193zM315 25v85h-71v-85h71z
" />
    <glyph glyph-name="haharabic" unicode="&#x62d;" horiz-adv-x="514" arabic-form="isolated" 
d="M470 243q1 10 1 30q0 142 -57.5 215.5t-170.5 73.5q-51 0 -74 -10v-61q27 14 58 14q158 0 173 -191h-144q-106 0 -165 -71.5t-59 -168.5q0 -108 68.5 -173.5t176.5 -65.5h104v74h-104q-79 0 -124 43.5t-45 116.5q0 79 46.5 126.5t122.5 47.5h193z" />
    <glyph glyph-name="khaharabic" unicode="&#x62e;" horiz-adv-x="514" arabic-form="isolated" 
d="M341 640v85h-71v-85h71zM470 243q1 10 1 30q0 142 -57.5 215.5t-170.5 73.5q-51 0 -74 -10v-61q27 14 58 14q158 0 173 -191h-144q-106 0 -165 -71.5t-59 -168.5q0 -108 68.5 -173.5t176.5 -65.5h104v74h-104q-79 0 -124 43.5t-45 116.5q0 79 46.5 126.5t122.5 47.5h193z
" />
    <glyph glyph-name="dalarabic" unicode="&#x62f;" horiz-adv-x="539" arabic-form="isolated" 
d="M496 0q0 188 -46 287q-76 168 -289 168v-66h27q126 -8 185 -104q49 -80 49 -215h-370v-70h444z" />
    <glyph glyph-name="thalarabic" unicode="&#x630;" horiz-adv-x="539" arabic-form="isolated" 
d="M277 526v85h-71v-85h71zM496 0q0 188 -46 287q-76 168 -289 168v-66h27q126 -8 185 -104q49 -80 49 -215h-370v-70h444z" />
    <glyph glyph-name="reharabic" unicode="&#x631;" horiz-adv-x="285" arabic-form="isolated" 
d="M242 454h-70v-382q0 -87 -34.5 -128t-105.5 -41v-67q110 6 160 66t50 183v369z" />
    <glyph glyph-name="zainarabic" unicode="&#x632;" horiz-adv-x="286" arabic-form="isolated" 
d="M243 526v85h-71v-85h71zM242 454h-70v-382q0 -87 -34.5 -128t-105.5 -41v-67q110 6 160 66t50 183v369z" />
    <glyph glyph-name="seenarabic" unicode="&#x633;" horiz-adv-x="1181" arabic-form="isolated" 
d="M1138 454h-71v-247q0 -79 -21.5 -108t-78.5 -29h-120q19 39 19 106v278h-70v-247q0 -79 -18.5 -108t-66.5 -29h-126q12 55 12 106v278h-71v-291q-8 -122 -63.5 -191.5t-147.5 -69.5q-98 0 -155.5 79t-57.5 211v262h-70v-276q0 -150 81 -247t202 -97q84 0 152 50.5
t104 140.5q4 -13 4 -25h415q148 0 148 176v278z" />
    <glyph glyph-name="sheenarabic" unicode="&#x634;" horiz-adv-x="1181" arabic-form="isolated" 
d="M934 526v85h-71v-85h71zM867 637v85h-71v-85h71zM803 526v85h-71v-85h71zM1138 454h-71v-247q0 -79 -21.5 -108t-78.5 -29h-120q19 39 19 106v278h-70v-247q0 -79 -18.5 -108t-66.5 -29h-126q12 55 12 106v278h-71v-291q-8 -122 -63.5 -191.5t-147.5 -69.5
q-98 0 -155.5 79t-57.5 211v262h-70v-276q0 -150 81 -247t202 -97q84 0 152 50.5t104 140.5q4 -13 4 -25h415q148 0 148 176v278z" />
    <glyph glyph-name="sadarabic" unicode="&#x635;" horiz-adv-x="1187" arabic-form="isolated" 
d="M1141 0q5 70 5 116q0 339 -240 339q-86 0 -170.5 -61t-138.5 -165v225h-70v-262q0 -133 -56.5 -211.5t-155.5 -78.5q-98 0 -155.5 79t-57.5 211v262h-70v-276q0 -150 81 -247t202 -97q158 0 245 166h581zM1072 69h-488q6 22 9 49q47 116 136 194.5t172 78.5
q81 0 127.5 -70.5t46.5 -188.5q0 -30 -3 -63z" />
    <glyph glyph-name="dadarabic" unicode="&#x636;" horiz-adv-x="1187" arabic-form="isolated" 
d="M923 526v85h-71v-85h71zM1141 0q5 70 5 116q0 339 -240 339q-86 0 -170.5 -61t-138.5 -165v225h-70v-262q0 -133 -56.5 -211.5t-155.5 -78.5q-98 0 -155.5 79t-57.5 211v262h-70v-276q0 -150 81 -247t202 -97q158 0 245 166h581zM1072 69h-488q6 22 9 49
q47 116 136 194.5t172 78.5q81 0 127.5 -70.5t46.5 -188.5q0 -30 -3 -63z" />
    <glyph glyph-name="taharabic" unicode="&#x637;" horiz-adv-x="787" arabic-form="isolated" 
d="M737 0q7 59 7 116q0 339 -241 339q-97 0 -188 -75.5t-142 -198.5l16 465h-74v-577h-83v-69h705zM669 69h-495q36 128 133 225t191 97q81 0 127.5 -70t46.5 -189q0 -30 -3 -63z" />
    <glyph glyph-name="zaharabic" unicode="&#x638;" horiz-adv-x="787" arabic-form="isolated" 
d="M520 526v85h-71v-85h71zM737 0q7 59 7 116q0 339 -241 339q-97 0 -188 -75.5t-142 -198.5l16 465h-74v-577h-83v-69h705zM669 69h-495q36 128 133 225t191 97q81 0 127.5 -70t46.5 -189q0 -30 -3 -63z" />
    <glyph glyph-name="ainarabic" unicode="&#x639;" horiz-adv-x="599" arabic-form="isolated" 
d="M556 243v70h-269q-41 53 -41 116q0 81 31.5 125t89.5 44q96 0 112 -94l76 8q-13 62 -64 99t-125 37q-90 0 -143 -61t-53 -159q0 -74 30 -122q-75 -19 -121.5 -83t-46.5 -149q0 -108 68.5 -173.5t176.5 -65.5h126v74h-126q-79 0 -124 43.5t-45 116.5q0 79 46.5 126.5
t122.5 47.5h279z" />
    <glyph glyph-name="ghainarabic" unicode="&#x63a;" horiz-adv-x="599" arabic-form="isolated" 
d="M403 721v85h-71v-85h71zM556 243v70h-269q-41 53 -41 116q0 81 31.5 125t89.5 44q96 0 112 -94l76 8q-13 62 -64 99t-125 37q-90 0 -143 -61t-53 -159q0 -74 30 -122q-75 -19 -121.5 -83t-46.5 -149q0 -108 68.5 -173.5t176.5 -65.5h126v74h-126q-79 0 -124 43.5
t-45 116.5q0 79 46.5 126.5t122.5 47.5h279z" />
    <glyph glyph-name="feharabic" unicode="&#x641;" horiz-adv-x="921" arabic-form="isolated" 
d="M708 525v85h-71v-85h71zM878 227q0 102 -56 164t-151 62q-97 0 -154 -63.5t-57 -163.5q0 -97 49 -156h-195q-212 0 -212 221v144h-70v-144q0 -291 288 -291h349q93 0 151 64t58 163zM800 234q0 -176 -130 -176q-61 0 -96.5 44.5t-35.5 119.5q0 81 35 127t101 46
q60 0 93 -42t33 -119z" />
    <glyph glyph-name="qafarabic" unicode="&#x642;" horiz-adv-x="708" arabic-form="isolated" 
d="M569 526v85h-72v-85h72zM438 526v85h-72v-85h72zM665 155v110q0 97 -52.5 151t-141.5 54q-88 0 -138 -55.5t-50 -152.5q0 -95 53 -151q54 -56 138 -56q77 0 122 53q-14 -108 -89 -161q-65 -45 -158 -45q-107 0 -176 76t-69 197v165h-72v-178q0 -144 92 -236
q94 -92 228 -92q147 0 229 85q84 85 84 236zM594 258q0 -60 -27 -100q-33 -49 -93 -49q-61 0 -94 52q-26 43 -26 103q0 56 24 99q32 54 89 54h10q63 0 94 -55q23 -43 23 -104z" />
    <glyph glyph-name="kafarabic" unicode="&#x643;" horiz-adv-x="816" arabic-form="isolated" 
d="M523 461q-16 79 -97 79q-47 0 -73.5 -29t-26.5 -79q0 -22 8 -43h-49v-49h236v49h-132q-12 17 -12 44q0 66 50 66q39 0 46 -42zM773 647h-70v-440q0 -80 -22 -108.5t-77 -28.5h-290q-212 0 -212 221v164h-70v-164q0 -291 288 -291h307q146 0 146 176v471z" />
    <glyph glyph-name="lamarabic" unicode="&#x644;" horiz-adv-x="640" arabic-form="isolated" 
d="M102 192v82h-70v-96q0 -152 81 -248q83 -96 202 -96t199 95q83 98 83 249v469h-70v-455q0 -117 -47 -196q-55 -94 -165 -94q-108 0 -165 94q-48 81 -48 196z" />
    <glyph glyph-name="meemarabic" unicode="&#x645;" horiz-adv-x="785" arabic-form="isolated" 
d="M742 229q0 102 -56 163.5t-151 61.5h-289q-214 0 -214 -277v-339h70v335q0 103 38 161.5t106 58.5h137q-59 -64 -59 -164q0 -102 55.5 -164t154.5 -62q93 0 150.5 62.5t57.5 163.5zM658 235q0 -167 -124 -167q-58 0 -91 42.5t-33 113.5q0 78 33.5 122t94.5 44
q57 0 88.5 -41t31.5 -114z" />
    <glyph glyph-name="noonarabic" unicode="&#x646;" horiz-adv-x="640" arabic-form="isolated" 
d="M349 526v85h-71v-85h71zM597 454h-70v-262q0 -133 -56.5 -211.5t-155.5 -78.5q-98 0 -155.5 79t-57.5 211v262h-70v-276q0 -150 81 -247t202 -97t201.5 98.5t80.5 245.5v276z" />
    <glyph glyph-name="heharabic" unicode="&#x647;" horiz-adv-x="502" arabic-form="isolated" 
d="M459 232q0 101 -54 164q-59 66 -158 66t-157 -67q-58 -64 -58 -164q0 -103 56 -165q58 -66 158 -66q98 0 157 68q56 65 56 164zM379 238q0 -179 -133 -179q-67 0 -103 52q-30 43 -30 115q0 76 30 123q36 54 108 54q66 0 101 -50q27 -43 27 -115z" />
    <glyph glyph-name="wawarabic" unicode="&#x648;" horiz-adv-x="484" arabic-form="isolated" 
d="M441 234q0 97 -53 160t-135 63q-85 0 -138 -61.5t-53 -158.5t54 -159.5t137 -62.5q85 0 118 57q-3 -169 -141 -169v-67q110 6 160.5 66t50.5 183v149zM373 234q0 -67 -32.5 -111.5t-86.5 -44.5t-88.5 45.5t-34.5 114.5q0 67 32.5 112t85.5 45q55 0 89.5 -46t34.5 -115z
" />
    <glyph glyph-name="alefmaksuraarabic" unicode="&#x649;" horiz-adv-x="729" arabic-form="isolated" 
d="M686 176v93h-246q45 172 208 172v61q-134 0 -209 -76t-86 -228h264q0 -136 -69.5 -216t-188.5 -80q-111 0 -178.5 69.5t-76.5 192.5q-1 10 -1 108h-71v-96q0 -145 93.5 -243.5t230.5 -98.5h6q138 0 231 98.5t93 243.5z" />
    <glyph glyph-name="yeharabic" unicode="&#x64a;" horiz-adv-x="730" arabic-form="isolated" 
d="M687 176l-1 93h-245q43 172 207 172v61q-134 0 -209 -76t-85 -228h263q0 -136 -69.5 -216t-188.5 -80q-110 0 -178 69.5t-77 192.5q-1 10 -1 108h-71v-96q0 -145 93.5 -243.5t230.5 -98.5h6q136 0 230.5 98t94.5 240v4zM460 -323v85h-71v-85h71zM329 -323v85h-71v-85h71z
" />
    <glyph glyph-name="fathatanarabic" unicode="&#xfe70;" arabic-form="isolated" 
d="M207 796l-146 -39q-22 -10 -31 -30l52 13t48 12.5t35.5 11t29 14.5t12.5 18zM198 736l-145 -39q-21 -10 -32 -30q20 5 52.5 13t48.5 12t35 11t28.5 15t12.5 18z" />
    <glyph glyph-name="dammatanarabic" unicode="&#xfe72;" arabic-form="isolated" 
d="M211 770q0 21 -14.5 35.5t-35.5 14.5q-17 0 -27 -10q-14 -14 -14 -35q0 -31 30 -59q-31 -29 -81 -32q21 26 21 52q0 18 -10.5 31t-25.5 13t-27 -12q10 2 15 2q30 0 30 -37q0 -31 -19 -50q1 -2 2.5 -8t2.5 -9q29 0 62 10q44 14 67.5 41t23.5 53zM161 724q-27 18 -27 51
q0 13 9 23t21 10q13 0 22.5 -10t9.5 -24q0 -27 -35 -50z" />
    <glyph glyph-name="kasratanarabic" unicode="&#xfe74;" arabic-form="isolated" 
d="M201 -274l-146 -40q-20 -9 -31 -29q18 5 52 13t49 12t35 11t29 15t12 18zM193 -334l-146 -40q-21 -9 -30 -29q18 5 52.5 13t49 12t34 11t28.5 15t12 18z" />
    <glyph glyph-name="fathaarabic" unicode="&#xfe76;" arabic-form="isolated" 
d="M198 736l-146 -40q-22 -10 -32 -29l52 13l48 12t35.5 11t29 15t13.5 18z" />
    <glyph glyph-name="dammaarabic" unicode="&#xfe78;" arabic-form="isolated" 
d="M147 806q-14 14 -36 14q-18 0 -30 -13.5t-12 -32.5q0 -31 31 -59q-34 -33 -85 -33q-9 0 -13 1q1 -3 2 -6.5t2 -5t3.5 -3t8.5 -1.5q62 0 103 35t41 68q0 20 -15 36zM111 724q-28 16 -28 50q0 13 9.5 23.5t21.5 10.5t22 -10t10 -25q0 -26 -35 -49z" />
    <glyph glyph-name="kasraarabic" unicode="&#xfe7a;" arabic-form="isolated" 
d="M180 -266l-145 -40q-22 -9 -31 -29q86 23 135 36q33 9 41 33z" />
    <glyph glyph-name="shaddaarabic" unicode="&#xfe7c;" arabic-form="isolated" 
d="M185 742l-15 77l-21 -5l13 -68q1 -3 1 -9q0 -23 -21 -23q-27 0 -35 38l-10 50l-22 -5l10 -51q1 -5 1 -13q0 -14 -8.5 -26.5t-20.5 -12.5q-15 0 -21 23l-13 68l-21 -5l16 -76q8 -36 36 -36q45 0 45 66q19 -45 47 -45q19 0 30 9.5t11 23.5q0 2 -2 20z" />
    <glyph glyph-name="sukunarabic" unicode="&#xfe7e;" arabic-form="isolated" 
d="M147 753q-11 57 -58 57q-6 0 -18 -2q-48 -10 -48 -62q0 -7 2 -21q11 -57 58 -57q5 0 17 2q49 10 49 64q0 5 -2 19zM85 795q19 0 33 -23q10 -17 10 -40q0 -49 -41 -49q-22 0 -34 23q-11 19 -11 41q0 39 33 47q3 1 10 1z" />
    <glyph glyph-name="alefwaslaisolated" unicode="&#x671;" horiz-adv-x="215" arabic-form="isolated" 
d="M161 0v647h-70v-647h70zM226 696q0 127 -73 127q-63 0 -111 -108l3 69l-16 -1v-68h-28v-19h225zM202 716h-146q47 83 96 83q50 0 50 -74v-9z" />
    <glyph glyph-name="peharabic" unicode="&#x67e;" horiz-adv-x="816" arabic-form="isolated" 
d="M773 454h-70v-247q0 -80 -22 -108.5t-77 -28.5h-290q-212 0 -212 221v164h-70v-164q0 -291 288 -291h307q146 0 146 176v278zM533 -153v85h-72v-85h72zM402 -153v85h-72v-85h72zM467 -264v85h-71v-85h71z" />
    <glyph glyph-name="tcheharabic" unicode="&#x686;" horiz-adv-x="514" arabic-form="isolated" 
d="M410 78v77h-71v-77h71zM470 243q1 10 1 30q0 142 -57.5 215.5t-170.5 73.5q-51 0 -74 -10v-61q27 14 58 14q158 0 173 -191h-38q-110 0 -146 -6q-82 -13 -133 -79t-51 -155q0 -108 68.5 -173.5t176.5 -65.5h104v74h-104q-79 0 -124 43.5t-45 116.5q0 79 46.5 126.5
t122.5 47.5h193zM286 78v77h-71v-77h71zM348 -26v78h-72v-78h72z" />
    <glyph glyph-name="jeharabic" unicode="&#x698;" horiz-adv-x="288" arabic-form="isolated" 
d="M242 454h-70v-382q0 -87 -34.5 -128t-105.5 -41v-67q110 6 160 66t50 183v369zM180 636v85h-71v-85h71zM245 525v85h-71v-85h71zM114 525v85h-71v-85h71z" />
    <glyph glyph-name="veharabic" unicode="&#x6a4;" horiz-adv-x="921" arabic-form="isolated" 
d="M706 636v85h-71v-85h71zM772 525v85h-66v-85h66zM641 525v85h-72v-85h72zM878 227q0 102 -56 164t-151 62q-97 0 -154 -63.5t-57 -163.5q0 -97 49 -156h-195q-212 0 -212 221v144h-70v-144q0 -291 288 -291h349q93 0 151 64t58 163zM800 234q0 -176 -130 -176
q-61 0 -96.5 44.5t-35.5 119.5q0 81 35 127t101 46q60 0 93 -42t33 -119z" />
    <glyph glyph-name="alefwaslafinal" unicode="&#x671;" horiz-adv-x="302" arabic-form="final" 
d="M331 0v70q-77 0 -84 1q-41 6 -57 31q-20 31 -20 99v446h-72v-488q0 -79 43 -121q38 -38 91 -38h99zM234 696q0 127 -73 127q-63 0 -111 -108l3 69l-16 -1v-68h-28v-19h225zM210 716h-146q47 83 96 83q50 0 50 -74v-9z" />
    <glyph glyph-name="pehfinalarabic" unicode="&#x67e;" horiz-adv-x="928" arabic-form="final" 
d="M939 0v70h-185q19 39 19 106v278h-70v-247q0 -67 -14 -97q-22 -40 -85 -40h-293q-209 0 -209 221v164h-70v-164q0 -291 288 -291h619zM533 -153v85h-72v-85h72zM402 -153v85h-72v-85h72zM467 -264v85h-71v-85h71z" />
    <glyph glyph-name="pehinitialarabic" unicode="&#x67e;" horiz-adv-x="285" arabic-form="initial" 
d="M232 454h-70v-247q0 -69 -15 -96q-21 -42 -85 -42h-72v-69h95q147 0 147 176v278zM233 -153v85h-71v-85h71zM102 -153v85h-72v-85h72zM167 -264v85h-71v-85h71z" />
    <glyph glyph-name="pehmedialarabic" unicode="&#x67e;" horiz-adv-x="328" arabic-form="medial" 
d="M337 0v70h-130q19 39 19 106v278h-70v-247q0 -69 -15 -97q-21 -41 -85 -41h-64v-69h345zM227 -153v85h-71v-85h71zM96 -153v85h-71v-85h71zM162 -264v85h-72v-85h72z" />
    <glyph glyph-name="vehfinalarabic" unicode="&#x6a4;" horiz-adv-x="1037" arabic-form="final" 
d="M750 724v85h-71v-85h71zM817 613v85h-67v-85h67zM686 613v85h-71v-85h71zM1053 0v70h-158q-55 0 -102 24q66 31 104 89.5t38 129.5q0 91 -60 149.5t-156 58.5t-156 -58.5t-60 -149.5q0 -69 38.5 -128.5t103.5 -90.5q-47 -24 -102 -24h-229q-212 0 -212 221v144h-70v-144
q0 -291 288 -291h164q101 0 137.5 9t98.5 45q63 -36 99 -45t135 -9h99zM720 136q-64 27 -102 78t-38 110t37.5 97.5t101.5 38.5q63 0 101 -38t38 -99q0 -59 -37 -109.5t-101 -77.5z" />
    <glyph glyph-name="vehinitialarabic" unicode="&#x6a4;" horiz-adv-x="592" arabic-form="initial" 
d="M373 637v85h-71v-85h71zM438 526v85h-71l6 -85h65zM307 526v85h-71v-85h71zM549 227q0 102 -56 164t-151 62q-96 0 -153.5 -64t-57.5 -163q0 -95 50 -156h-195v-70h355q93 0 150.5 64t57.5 163zM472 234q0 -176 -131 -176q-61 0 -96 44.5t-35 119.5q0 81 34.5 127
t100.5 46q61 0 94 -42.5t33 -118.5z" />
    <glyph glyph-name="vehmedialarabic" unicode="&#x6a4;" horiz-adv-x="628" arabic-form="medial" 
d="M350 716v85h-71v-85h71zM415 605v85h-71v-85h71zM284 605v85h-71v-85h71zM644 0v70h-158q-56 0 -102 24q69 32 106 93q36 59 36 126q0 85 -54 144q-60 64 -162 64q-101 0 -161 -64q-55 -58 -55 -144q0 -67 36 -126q37 -61 106 -93q-46 -24 -102 -24h-158v-70h99
q85 0 116 6q55 10 120 48q65 -38 119 -48q32 -6 115 -6h99zM311 136q-70 29 -106 83q-34 49 -34 105q0 59 37.5 97.5t101.5 38.5q66 0 104 -41q36 -37 36 -96q0 -55 -35 -105q-37 -54 -104 -82z" />
    <glyph glyph-name="tchehfinalarabic" unicode="&#x686;" horiz-adv-x="646" arabic-form="final" 
d="M653 0v70h-40q-56 0 -98 63.5t-45 157.5q-9 270 -225 270q-53 0 -76 -10v-61q27 14 58 14q158 0 173 -190h-38q-110 0 -146 -6q-82 -13 -133 -79t-51 -155q0 -108 68.5 -173.5t176.5 -65.5h104v74h-104q-79 0 -124 43.5t-45 116.5q0 79 45.5 125.5t123.5 46.5h129
q12 -100 74 -170.5t146 -70.5h27zM382 70v78h-71v-78h71zM258 70v78h-71v-78h71zM320 -33v77h-72v-77h72z" />
    <glyph glyph-name="tchehinitialarabic" unicode="&#x686;" horiz-adv-x="721" arabic-form="initial" 
d="M678 101q0 155 -90 247.5t-240 92.5q-163 0 -248 -106q51 -51 61 -62q60 99 188 99q118 0 182 -69.5t64 -196.5l-2 -36h-608v-70h693v101zM455 -153v85h-71v-85h71zM324 -153v85h-71v-85h71zM390 -264v85h-72v-85h72z" />
    <glyph glyph-name="tchehmedialarabic" unicode="&#x686;" horiz-adv-x="774" arabic-form="medial" 
d="M788 0v70h-110v31q0 155 -90 247.5t-240 92.5q-163 0 -248 -106q51 -51 61 -62q60 99 188 99q118 0 182 -69.5t64 -196.5l-2 -36h-608v-70h803zM455 -153v85h-71v-85h71zM324 -153v85h-71v-85h71zM390 -264v85h-72l6 -85h66z" />
    <glyph glyph-name="jehfinalarabic" unicode="&#x698;" horiz-adv-x="393" arabic-form="final" 
d="M407 0v70h-165v384h-70v-382q0 -87 -34.5 -128t-105.5 -41v-67q175 11 203 164h172zM180 636v85h-71v-85h71zM245 525v85h-71l6 -85h65zM114 525v85h-71v-85h71z" />
    <glyph glyph-name="alefmaksurainitialarabic" unicode="&#x6cc;" horiz-adv-x="275" arabic-form="initial" 
d="M232 454h-70v-247q0 -69 -15 -96q-21 -42 -85 -42h-65v-69h88q147 0 147 176v278zM231 -153v85h-71v-85h71zM100 -153v85h-71v-85h71z" />
    <glyph glyph-name="alefmaksuramedialarabic" unicode="&#x6cc;" horiz-adv-x="328" arabic-form="medial" 
d="M337 0v70h-130q19 39 19 106v278h-70v-247q0 -69 -15 -97q-21 -41 -85 -41h-64v-69h345zM227 -153v85h-71v-85h71zM96 -153v85h-71v-85h71z" />
    <glyph glyph-name="alefmaddaabovefinalarabic" unicode="&#x622;" horiz-adv-x="302" arabic-form="final" 
d="M331 0v70q-77 0 -84 1q-41 6 -57 31q-20 31 -20 99v446h-72v-488q0 -79 43 -121q38 -38 91 -38h99zM243 726l-17 23q-24 -27 -44 -27q-13 0 -46 16q-36 17 -52 17q-34 0 -60 -39l17 -23q24 29 41 29q15 0 49 -17t50 -17q30 0 62 38z" />
    <glyph glyph-name="alefhamzaabovefinalarabic" unicode="&#x623;" horiz-adv-x="302" arabic-form="final" 
d="M331 0v70q-77 0 -84 1q-41 6 -57 31q-20 31 -20 99v446h-72v-488q0 -79 43 -121q38 -38 91 -38h99zM224 791q-13 64 -78 64q-41 0 -61.5 -24t-20.5 -64q0 -20 7 -35h-40v-40h191v40h-107q-10 14 -10 36q0 54 41 54q31 0 37 -35z" />
    <glyph glyph-name="wawhamzaabovefinalarabic" unicode="&#x624;" horiz-adv-x="561" arabic-form="final" 
d="M573 0v69h-130v186q0 97 -47.5 148.5t-132.5 51.5t-143 -66t-58 -163t54.5 -161.5t137.5 -64.5h109q-25 -97 -131 -97v-67q173 11 203 164h138zM371 70l-116 -1q-52 0 -86.5 48t-34.5 116q0 62 36.5 109.5t88.5 47.5q51 0 81.5 -31t30.5 -78v-211zM374 634q-16 79 -96 79
q-46 0 -73 -28.5t-27 -79.5q0 -23 8 -44h-49v-49h236v49h-132q-12 18 -12 44q0 67 49 67q39 0 48 -43z" />
    <glyph glyph-name="alefhamzabelowfinalarabic" unicode="&#x625;" horiz-adv-x="302" arabic-form="final" 
d="M331 0v70q-77 0 -84 1q-41 6 -57 31q-20 31 -20 99v446h-72v-488q0 -79 43 -121q38 -38 91 -38h99zM206 -105q-14 63 -78 63q-40 0 -63 -26q-18 -22 -18 -61q0 -20 6 -35h-39v-40h192v40h-108q-10 13 -10 35q0 54 41 54q30 0 38 -35z" />
    <glyph glyph-name="yehhamzaabovefinalarabic" unicode="&#x626;" horiz-adv-x="936" arabic-form="final" 
d="M293 533q-18 85 -105 85q-52 0 -80 -31.5t-28 -85.5q0 -25 9 -47h-53v-53h256v53h-144q-13 19 -13 47q0 73 54 73q42 0 51 -47zM520 379v-80q68 0 105 -37.5t37 -109.5q0 -98 -82 -175t-191 -77q-129 0 -203 88.5t-74 235.5v94h-77v-108q0 -164 101 -275t250 -111
q139 0 241.5 95.5t102.5 230.5q19 -70 72 -110t130 -40h16v76h-23q-34 0 -61 17t-45.5 44t-36.5 59t-40 64t-49.5 58.5t-72 43.5t-100.5 17z" />
    <glyph glyph-name="yehhamzaaboveinitialarabic" unicode="&#x626;" horiz-adv-x="277" arabic-form="initial" 
d="M234 577q-17 77 -96 77q-50 0 -77 -32q-23 -29 -23 -75q0 -22 8 -43h-49v-49h237v49h-133q-12 16 -12 43q0 68 49 68q39 0 48 -44zM234 402h-72v-195q0 -70 -13 -96q-23 -42 -85 -42h-66v-69h89q147 0 147 176v226z" />
    <glyph glyph-name="yehhamzaabovemedialarabic" unicode="&#x626;" horiz-adv-x="328" arabic-form="medial" 
d="M228 577q-17 77 -97 77q-50 0 -77 -32q-23 -29 -23 -75q0 -23 9 -43h-49v-49h235v49h-132q-12 16 -12 43q0 68 50 68q39 0 47 -44zM337 0v70h-130q19 39 19 106v227h-70v-196q0 -69 -15 -97q-21 -41 -85 -41h-64v-69h345z" />
    <glyph glyph-name="aleffinalarabic" unicode="&#x627;" horiz-adv-x="302" arabic-form="final" 
d="M311 0v70q-57 0 -64 1q-41 6 -57 31q-20 31 -20 99v446h-72v-488q0 -79 43 -121q38 -38 91 -38h79z" />
    <glyph glyph-name="behfinalarabic" unicode="&#x628;" horiz-adv-x="928" arabic-form="final" 
d="M458 -152v85h-71v-85h71zM939 0v70h-185q19 39 19 106v278h-70v-247q0 -67 -14 -97q-22 -40 -85 -40h-293q-209 0 -209 221v164h-70v-164q0 -291 288 -291h619z" />
    <glyph glyph-name="behinitialarabic" unicode="&#x628;" horiz-adv-x="236" arabic-form="initial" 
d="M232 454h-70v-247q0 -69 -15 -96q-21 -42 -85 -42h-65v-69h88q147 0 147 176v278zM232 -152v85h-71v-85h71z" />
    <glyph glyph-name="behmedialarabic" unicode="&#x628;" horiz-adv-x="328" arabic-form="medial" 
d="M337 0v70h-130q19 39 19 106v278h-70v-247q0 -69 -15 -97q-21 -41 -85 -41h-64v-69h345zM226 -152v85h-71v-85h71z" />
    <glyph glyph-name="tehmarbutafinalarabic" unicode="&#x629;" horiz-adv-x="590" arabic-form="final" 
d="M388 622v85h-71v-85h71zM257 622v85h-71v-85h71zM600 0v69h-38q-61 0 -94.5 42t-33.5 117v321h-212q-85 0 -137.5 -67.5t-52.5 -174.5q0 -100 51 -169t127 -69q108 0 153 77q44 -146 191 -146h46zM362 320q-3 -196 -129 -196q-57 0 -94 54.5t-37 132.5q0 80 37 133t96 53
h127v-177z" />
    <glyph glyph-name="tehfinalarabic" unicode="&#x62a;" horiz-adv-x="928" arabic-form="final" 
d="M507 455v85h-71v-85h71zM376 455v85h-71v-85h71zM939 0v70h-185q19 39 19 106v278h-70v-247q0 -67 -14 -97q-22 -40 -85 -40h-293q-209 0 -209 221v164h-70v-164q0 -291 288 -291h619z" />
    <glyph glyph-name="tehinitialarabic" unicode="&#x62a;" horiz-adv-x="275" arabic-form="initial" 
d="M232 526v85h-71v-85h71zM101 526v85h-71v-85h71zM232 454h-70v-247q0 -69 -15 -96q-21 -42 -85 -42h-65v-69h88q147 0 147 176v278z" />
    <glyph glyph-name="tehmedialarabic" unicode="&#x62a;" horiz-adv-x="328" arabic-form="medial" 
d="M225 526v85h-71v-85h71zM94 526v85h-71v-85h71zM337 0v70h-130q19 39 19 106v278h-70v-247q0 -69 -15 -97q-21 -41 -85 -41h-64v-69h345z" />
    <glyph glyph-name="thehfinalarabic" unicode="&#x62b;" horiz-adv-x="928" arabic-form="final" 
d="M443 565v85h-71v-85h71zM509 455v85h-71v-85h71zM378 455v85h-72v-85h72zM939 0v70h-185q19 39 19 106v278h-70v-247q0 -67 -14 -97q-22 -40 -85 -40h-293q-209 0 -209 221v164h-70v-164q0 -291 288 -291h619z" />
    <glyph glyph-name="thehinitialarabic" unicode="&#x62b;" horiz-adv-x="275" arabic-form="initial" 
d="M166 637v85h-71v-85h71zM232 526v85h-71v-85h71zM101 526v85h-71v-85h71zM232 454h-70v-247q0 -69 -15 -96q-21 -42 -85 -42h-65v-69h88q147 0 147 176v278z" />
    <glyph glyph-name="thehmedialarabic" unicode="&#x62b;" horiz-adv-x="328" arabic-form="medial" 
d="M159 637v85h-71v-85h71zM224 526v85h-71v-85h71zM93 526v85h-71v-85h71zM337 0v70h-130q19 39 19 106v278h-70v-247q0 -69 -15 -97q-21 -41 -85 -41h-64v-69h345z" />
    <glyph glyph-name="jeemfinalarabic" unicode="&#x62c;" horiz-adv-x="646" arabic-form="final" 
d="M653 0v70h-40q-56 0 -98 63.5t-45 157.5q-9 270 -225 270q-53 0 -76 -10v-61q27 14 58 14q158 0 173 -190h-38q-110 0 -146 -6q-82 -13 -133 -79t-51 -155q0 -108 68.5 -173.5t176.5 -65.5h104v74h-104q-79 0 -124 43.5t-45 116.5q0 79 45.5 125.5t123.5 46.5h129
q12 -100 74 -170.5t146 -70.5h27zM315 25v85h-71v-85h71z" />
    <glyph glyph-name="jeeminitialarabic" unicode="&#x62c;" horiz-adv-x="721" arabic-form="initial" 
d="M678 101q0 155 -90 247.5t-240 92.5q-163 0 -248 -106q51 -51 61 -62q60 99 188 99q118 0 182 -69.5t64 -196.5q0 -10 -2 -36h-608v-70h693v101zM402 -152v85h-72v-85h72z" />
    <glyph glyph-name="jeemmedialarabic" unicode="&#x62c;" horiz-adv-x="774" arabic-form="medial" 
d="M788 0v70h-110v31q0 155 -90 247.5t-240 92.5q-163 0 -248 -106q51 -51 61 -62q60 99 188 99q118 0 182 -69.5t64 -196.5q0 -10 -2 -36h-608v-70h803zM403 -152v85h-71v-85h71z" />
    <glyph glyph-name="hahfinalarabic" unicode="&#x62d;" horiz-adv-x="646" arabic-form="final" 
d="M653 0v70h-40q-56 0 -98 63.5t-45 157.5q-9 270 -225 270q-53 0 -76 -10v-61q27 14 58 14q158 0 173 -190h-62q-90 0 -122 -6q-83 -13 -133.5 -78.5t-50.5 -155.5q0 -108 68.5 -173.5t176.5 -65.5h104v74h-104q-79 0 -124 43.5t-45 116.5q0 79 45.5 125.5t123.5 46.5h129
q12 -100 74 -170.5t146 -70.5h27z" />
    <glyph glyph-name="hahinitialarabic" unicode="&#x62d;" horiz-adv-x="721" arabic-form="initial" 
d="M678 101q0 155 -90 247.5t-240 92.5q-163 0 -248 -106q51 -51 61 -62q60 99 188 99q118 0 182 -69.5t64 -196.5q0 -10 -2 -36h-608v-70h693v101z" />
    <glyph glyph-name="hahmedialarabic" unicode="&#x62d;" horiz-adv-x="774" arabic-form="medial" 
d="M788 0v70h-110v31q0 155 -90 247.5t-240 92.5q-163 0 -248 -106q51 -51 61 -62q60 99 188 99q118 0 182 -69.5t64 -196.5q0 -10 -2 -36h-608v-70h803z" />
    <glyph glyph-name="khahfinalarabic" unicode="&#x62e;" horiz-adv-x="646" arabic-form="final" 
d="M315 640v85h-71v-85h71zM653 0v70h-40q-56 0 -98 63.5t-45 157.5q-9 270 -225 270q-53 0 -76 -10v-61q27 14 58 14q158 0 173 -190h-38q-110 0 -146 -6q-82 -13 -133 -79t-51 -155q0 -108 68.5 -173.5t176.5 -65.5h104v74h-104q-79 0 -124 43.5t-45 116.5
q0 79 45.5 125.5t123.5 46.5h129q12 -100 74 -170.5t146 -70.5h27z" />
    <glyph glyph-name="khahinitialarabic" unicode="&#x62e;" horiz-adv-x="721" arabic-form="initial" 
d="M381 526v85h-71v-85h71zM678 101q0 155 -90 247.5t-240 92.5q-163 0 -248 -106q51 -51 61 -62q60 99 188 99q118 0 182 -69.5t64 -196.5q0 -10 -2 -36h-608v-70h693v101z" />
    <glyph glyph-name="khahmedialarabic" unicode="&#x62e;" horiz-adv-x="774" arabic-form="medial" 
d="M381 526v85h-71v-85h71zM788 0v70h-110v31q0 155 -90 247.5t-240 92.5q-163 0 -248 -106q51 -51 61 -62q60 99 188 99q118 0 182 -69.5t64 -196.5q0 -10 -2 -36h-608v-70h803z" />
    <glyph glyph-name="dalfinalarabic" unicode="&#x62f;" horiz-adv-x="620" arabic-form="final" 
d="M633 0v70h-159q-16 385 -333 385v-66h27q126 -8 185 -104q49 -80 49 -215h-370v-70h601z" />
    <glyph glyph-name="thalfinalarabic" unicode="&#x630;" horiz-adv-x="620" arabic-form="final" 
d="M238 526v85h-71v-85h71zM633 0v70h-159q-16 385 -333 385v-66h27q126 -8 185 -104q49 -80 49 -215h-370v-70h601z" />
    <glyph glyph-name="rehfinalarabic" unicode="&#x631;" horiz-adv-x="393" arabic-form="final" 
d="M407 0v70h-165v384h-70v-382q0 -87 -34.5 -128t-105.5 -41v-67q175 11 203 164h172z" />
    <glyph glyph-name="zainfinalarabic" unicode="&#x632;" horiz-adv-x="393" arabic-form="final" 
d="M243 526v85h-71v-85h71zM407 0v70h-165v384h-70v-382q0 -87 -34.5 -128t-105.5 -41v-67q171 10 211 164h164z" />
    <glyph glyph-name="seenfinalarabic" unicode="&#x633;" horiz-adv-x="1267" arabic-form="final" 
d="M1277 0v70h-161q20 42 20 106v278h-70v-247q0 -78 -21.5 -107.5t-78.5 -29.5h-120q19 39 19 106v278h-70v-247q0 -79 -18.5 -108t-66.5 -29h-125q12 50 12 108v276h-72v-302q-10 -117 -65 -183.5t-145 -66.5q-98 0 -155.5 79t-57.5 211v262h-70v-276q0 -150 81 -247
t202 -97q84 0 153 50.5t102 139.5q4 -12 4 -24h703z" />
    <glyph glyph-name="seeninitialarabic" unicode="&#x633;" horiz-adv-x="839" arabic-form="initial" 
d="M796 454h-71v-247q0 -79 -21.5 -108t-78.5 -29h-120q19 39 19 106v278h-70v-247q0 -79 -18.5 -108t-66.5 -29h-131v4q17 42 17 102v278h-70v-256q-11 -128 -106 -128h-93v-70h662q148 0 148 176v278z" />
    <glyph glyph-name="seenmedialarabic" unicode="&#x633;" horiz-adv-x="925" arabic-form="medial" 
d="M936 0v70h-161q20 42 20 106v278h-70v-247q0 -79 -21.5 -108t-78.5 -29h-120q19 39 19 106v278h-70v-247q0 -79 -18.5 -108t-66.5 -29h-131v4q17 42 17 102v278h-71v-256q0 -62 -28 -95t-77 -33h-93v-70h950z" />
    <glyph glyph-name="sheenfinalarabic" unicode="&#x634;" horiz-adv-x="1267" arabic-form="final" 
d="M1277 0v70h-161q20 42 20 106v278h-70v-247q0 -79 -21.5 -108t-78.5 -29h-120q19 39 19 106v278h-70v-247q0 -79 -18.5 -108t-66.5 -29h-125q12 50 12 108v276h-72v-302q-10 -117 -65 -183.5t-145 -66.5q-98 0 -155.5 79t-57.5 211v262h-70v-276q0 -150 81 -247t202 -97
q84 0 153 50.5t102 139.5q4 -12 4 -24h703zM933 526v85h-71v-85h71zM866 637v85h-71v-85h71zM802 526v85h-71v-85h71z" />
    <glyph glyph-name="sheeninitialarabic" unicode="&#x634;" horiz-adv-x="839" arabic-form="initial" 
d="M592 526v85h-71v-85h71zM525 637v85h-71v-85h71zM461 526v85h-71v-85h71zM796 454h-71v-247q0 -79 -21.5 -108t-78.5 -29h-120q19 39 19 106v278h-70v-247q0 -79 -18.5 -108t-66.5 -29h-131v4q17 42 17 102v278h-70v-256q-11 -128 -106 -128h-93v-70h662q148 0 148 176
v278z" />
    <glyph glyph-name="sheenmedialarabic" unicode="&#x634;" horiz-adv-x="925" arabic-form="medial" 
d="M592 526v85h-71v-85h71zM525 637v85h-71v-85h71zM461 526v85h-71v-85h71zM936 0v70h-161q20 42 20 106v278h-70v-247q0 -79 -21.5 -108t-78.5 -29h-120q19 39 19 106v278h-70v-247q0 -79 -18.5 -108t-66.5 -29h-131v4q17 42 17 102v278h-71v-256q0 -62 -28 -95t-77 -33
h-93v-70h950z" />
    <glyph glyph-name="sadfinalarabic" unicode="&#x635;" horiz-adv-x="1262" arabic-form="final" 
d="M1273 0v70h-127v46q0 339 -240 339q-86 0 -170.5 -61t-138.5 -165v225h-70v-262q0 -133 -56.5 -211.5t-155.5 -78.5q-98 0 -155.5 79t-57.5 211v262h-70v-276q0 -150 81 -247t202 -97q158 0 245 166h713zM1072 69h-488q6 22 9 49q47 116 136 194.5t172 78.5
q81 0 127.5 -70.5t46.5 -188.5q0 -30 -3 -63z" />
    <glyph glyph-name="sadinitialarabic" unicode="&#x635;" horiz-adv-x="842" arabic-form="initial" 
d="M797 0q5 70 5 116q0 339 -240 339q-85 0 -168.5 -59.5t-138.5 -163.5v174h-70v-180q0 -156 -106 -156h-93v-70h811zM728 69h-490v17q40 123 134 214t185 91q81 0 127.5 -70.5t46.5 -188.5q0 -30 -3 -63z" />
    <glyph glyph-name="sadmedialarabic" unicode="&#x635;" horiz-adv-x="930" arabic-form="medial" 
d="M939 0v70h-132v46q0 339 -240 339q-87 0 -173 -62.5t-140 -170.5q1 7 1 20v164h-70v-180q0 -156 -106 -156h-93v-70h953zM733 69h-495q36 127 133 224.5t191 97.5q81 0 127.5 -70.5t46.5 -188.5q0 -30 -3 -63z" />
    <glyph glyph-name="dadfinalarabic" unicode="&#x636;" horiz-adv-x="1262" arabic-form="final" 
d="M918 526v85h-71v-85h71zM1273 0v70h-127v46q0 339 -240 339q-86 0 -170.5 -61t-138.5 -165v225h-70v-262q0 -133 -56.5 -211.5t-155.5 -78.5q-98 0 -155.5 79t-57.5 211v262h-70v-276q0 -150 81 -247t202 -97q158 0 245 166h713zM1072 69h-488q6 22 9 49
q47 116 136 194.5t172 78.5q81 0 127.5 -70.5t46.5 -188.5q0 -30 -3 -63z" />
    <glyph glyph-name="dadinitialarabic" unicode="&#x636;" horiz-adv-x="842" arabic-form="initial" 
d="M579 526v85h-71v-85h71zM797 0q5 70 5 116q0 339 -240 339q-85 0 -168.5 -59.5t-138.5 -163.5v174h-70v-180q0 -156 -106 -156h-93v-70h811zM728 69h-490v17q40 123 134 214t185 91q81 0 127.5 -70.5t46.5 -188.5q0 -30 -3 -63z" />
    <glyph glyph-name="dadmedialarabic" unicode="&#x636;" horiz-adv-x="930" arabic-form="medial" 
d="M584 526v85h-71v-85h71zM939 0v70h-132v46q0 339 -240 339q-87 0 -173 -62.5t-140 -170.5q1 7 1 20v164h-70v-180q0 -156 -106 -156h-93v-70h953zM733 69h-495q36 127 133 224.5t191 97.5q81 0 127.5 -70.5t46.5 -188.5q0 -30 -3 -63z" />
    <glyph glyph-name="tahfinalarabic" unicode="&#x637;" horiz-adv-x="903" arabic-form="final" 
d="M908 0v70h-136q1 16 1 46q0 339 -241 339q-96 0 -187.5 -75.5t-142.5 -198.5l16 465h-74v-577h-80v-69h844zM698 69h-495q36 127 133 224.5t191 97.5q81 0 127.5 -70.5t46.5 -188.5q0 -30 -3 -63z" />
    <glyph glyph-name="tahinitialarabic" unicode="&#x637;" horiz-adv-x="818" arabic-form="initial" 
d="M769 0q6 63 6 116q0 339 -240 339q-98 0 -189 -75.5t-142 -198.5l16 465h-73v-577h-185v-69h807zM700 69h-495q36 127 133 224.5t191 97.5q81 0 127.5 -70t46.5 -189q0 -30 -3 -63z" />
    <glyph glyph-name="tahmedialarabic" unicode="&#x637;" horiz-adv-x="903" arabic-form="medial" 
d="M908 0v70h-136q1 16 1 46q0 339 -241 339q-96 0 -187.5 -75.5t-142.5 -198.5l16 465h-74v-577h-184v-69h948zM698 69h-495q36 127 133 224.5t191 97.5q81 0 127.5 -70.5t46.5 -188.5q0 -30 -3 -63z" />
    <glyph glyph-name="zahfinalarabic" unicode="&#x638;" horiz-adv-x="903" arabic-form="final" 
d="M549 526v85h-71v-85h71zM908 0v70h-136q1 16 1 46q0 339 -241 339q-96 0 -187.5 -75.5t-142.5 -198.5l16 465h-74v-577h-80v-69h844zM698 69h-495q36 127 133 224.5t191 97.5q81 0 127.5 -70.5t46.5 -188.5q0 -30 -3 -63z" />
    <glyph glyph-name="zahinitialarabic" unicode="&#x638;" horiz-adv-x="818" arabic-form="initial" 
d="M553 526v85h-71v-85h71zM769 0q6 63 6 116q0 339 -240 339q-98 0 -189 -75.5t-142 -198.5l16 465h-73v-577h-185v-69h807zM700 69h-495q36 127 133 224.5t191 97.5q81 0 127.5 -70t46.5 -189q0 -30 -3 -63z" />
    <glyph glyph-name="zahmedialarabic" unicode="&#x638;" horiz-adv-x="903" arabic-form="medial" 
d="M549 526v85h-71v-85h71zM908 0v70h-136q1 16 1 46q0 339 -241 339q-96 0 -187.5 -75.5t-142.5 -198.5l16 465h-74v-577h-184v-69h948zM698 69h-495q36 127 133 224.5t191 97.5q81 0 127.5 -70.5t46.5 -188.5q0 -30 -3 -63z" />
    <glyph glyph-name="ainfinalarabic" unicode="&#x639;" horiz-adv-x="745" arabic-form="final" 
d="M774 0v70q-100 0 -159 57.5t-59 145.5v40h-269q-41 53 -41 116q0 81 31.5 125t89.5 44q96 0 112 -94l76 8q-13 62 -64 99t-125 37q-90 0 -143 -61t-53 -159q0 -74 30 -122q-75 -19 -121.5 -83t-46.5 -149q0 -108 68.5 -173.5t176.5 -65.5h126v74h-126q-79 0 -124 43.5
t-45 116.5q0 78 45 125.5t120 47.5h223q4 -103 77 -172.5t174 -69.5h27z" />
    <glyph glyph-name="aininitialarabic" unicode="&#x639;" horiz-adv-x="562" arabic-form="initial" 
d="M519 0v70h-302q-46 47 -46 140q0 80 27 129q36 61 109 61q107 0 125 -106l85 9q-13 74 -77 115q-56 38 -134 38q-107 0 -165 -73q-55 -67 -55 -173q0 -82 36 -140h-153v-70h550z" />
    <glyph glyph-name="ainmedialarabic" unicode="&#x639;" horiz-adv-x="703" arabic-form="medial" 
d="M713 0v70h-135q-63 0 -81 5q-37 9 -71 51q78 60 132 136q24 34 64 110q-118 96 -263 96q-126 0 -250 -80l1 -79q131 -51 214 -176q-52 -37 -89 -50q-36 -13 -92 -13h-155v-70h157q133 0 225 78q57 -78 149 -78h194zM541 350q-55 -99 -163 -172q-52 71 -91 103
q-51 43 -115 67q104 57 191 57q52 0 102 -19q19 -8 76 -36z" />
    <glyph glyph-name="ghainfinalarabic" unicode="&#x63a;" horiz-adv-x="745" arabic-form="final" 
d="M403 721v85h-71v-85h71zM774 0v70q-100 0 -159 57.5t-59 145.5v40h-269q-41 53 -41 116q0 81 31.5 125t89.5 44q96 0 112 -94l76 8q-13 62 -64 99t-125 37q-90 0 -143 -61t-53 -159q0 -74 30 -122q-75 -19 -121.5 -83t-46.5 -149q0 -108 68.5 -173.5t176.5 -65.5h126v74
h-126q-79 0 -124 43.5t-45 116.5q0 78 45 125.5t120 47.5h223q4 -103 77 -172.5t174 -69.5h27z" />
    <glyph glyph-name="ghaininitialarabic" unicode="&#x63a;" horiz-adv-x="562" arabic-form="initial" 
d="M338 526v85h-71v-85h71zM519 0v70h-302q-46 47 -46 140q0 80 27 129q36 61 109 61q107 0 125 -106l85 9q-13 74 -77 115q-56 38 -134 38q-107 0 -165 -73q-55 -67 -55 -173q0 -82 36 -140h-153v-70h550z" />
    <glyph glyph-name="ghainmedialarabic" unicode="&#x63a;" horiz-adv-x="703" arabic-form="medial" 
d="M407 526v85h-71v-85h71zM713 0v70h-135q-74 0 -97 9t-55 47q78 60 132 136q24 34 64 110q-118 96 -263 96q-127 0 -249 -80v-79q131 -51 214 -176q-53 -38 -89 -50.5t-92 -12.5h-155v-70h157q133 0 225 78q57 -78 149 -78h194zM541 350q-55 -99 -163 -172
q-54 74 -97.5 109.5t-108.5 60.5q104 57 191 57q48 0 71.5 -7t106.5 -48z" />
    <glyph glyph-name="fehfinalarabic" unicode="&#x641;" horiz-adv-x="1037" arabic-form="final" 
d="M746 614v85h-71v-85h71zM1053 0v70h-158q-55 0 -102 24q66 31 104 89.5t38 129.5q0 91 -60 149.5t-156 58.5t-156 -58.5t-60 -149.5q0 -69 38.5 -128.5t103.5 -90.5q-47 -24 -102 -24h-229q-212 0 -212 221v144h-70v-144q0 -291 288 -291h164q101 0 137.5 9t98.5 45
q63 -36 99 -45t135 -9h99zM720 136q-64 27 -102 78t-38 110t37.5 97.5t101.5 38.5q63 0 101 -38t38 -99q0 -59 -37 -109.5t-101 -77.5z" />
    <glyph glyph-name="fehinitialarabic" unicode="&#x641;" horiz-adv-x="592" arabic-form="initial" 
d="M378 526v85h-72v-85h72zM549 227q0 102 -56 164t-151 62q-96 0 -153.5 -64t-57.5 -163q0 -95 50 -156h-195v-70h355q93 0 150.5 64t57.5 163zM472 234q0 -176 -131 -176q-61 0 -96 44.5t-35 119.5q0 81 34.5 127t100.5 46q61 0 94 -42.5t33 -118.5z" />
    <glyph glyph-name="fehmedialarabic" unicode="&#x641;" horiz-adv-x="628" arabic-form="medial" 
d="M347 606v85h-71v-85h71zM644 0v70h-158q-56 0 -102 24q69 32 106 93q36 59 36 126q0 85 -54 144q-60 64 -162 64q-101 0 -161 -64q-55 -58 -55 -144q0 -67 36 -126q37 -61 106 -93q-46 -24 -102 -24h-158v-70h99q85 0 116 6q55 10 120 48q65 -38 119 -48q32 -6 115 -6h99
zM311 136q-70 29 -106 83q-34 49 -34 105q0 59 37.5 97.5t101.5 38.5q66 0 104 -41q36 -37 36 -96q0 -55 -35 -105q-37 -54 -104 -82z" />
    <glyph glyph-name="qaffinalarabic" unicode="&#x642;" horiz-adv-x="775" arabic-form="final" 
d="M569 526v85h-72v-85h72zM438 526v85h-72v-85h72zM787 0v70h-131v185q0 98 -47 149t-133 51q-85 0 -142.5 -66t-57.5 -163t54 -161.5t137 -64.5h91q-62 -98 -209 -98q-107 0 -176 76.5t-69 196.5v165h-72v-178q0 -143 92.5 -235.5t227.5 -92.5q211 0 284 166h151zM585 70
l-116 -1q-52 0 -86.5 49t-34.5 115q0 63 36 110t89 47q49 0 80.5 -30.5t31.5 -78.5v-211z" />
    <glyph glyph-name="qafinitialarabic" unicode="&#x642;" horiz-adv-x="592" arabic-form="initial" 
d="M442 526v85h-71v-85h71zM311 526v85h-71v-85h71zM549 227q0 102 -56 164t-151 62q-96 0 -153.5 -64t-57.5 -163q0 -95 50 -156h-195v-70h355q94 0 151 64t57 163zM472 234q0 -176 -131 -176q-61 0 -96 44.5t-35 119.5q0 81 34.5 127t100.5 46q61 0 94 -42.5t33 -118.5z
" />
    <glyph glyph-name="qafmedialarabic" unicode="&#x642;" horiz-adv-x="628" arabic-form="medial" 
d="M415 605v85h-71v-85h71zM284 605v85h-71v-85h71zM644 0v70h-158q-56 0 -102 24q69 32 106 93q36 59 36 126q0 85 -54 144q-60 64 -162 64q-101 0 -161 -64q-55 -58 -55 -144q0 -67 36 -126q37 -61 106 -93q-46 -24 -102 -24h-158v-70h99q85 0 116 6q55 10 120 48
q65 -38 119 -48q32 -6 115 -6h99zM311 136q-70 29 -106 83q-34 49 -34 105q0 59 37.5 97.5t101.5 38.5q66 0 104 -41q36 -37 36 -96q0 -55 -35 -105q-37 -54 -104 -82z" />
    <glyph glyph-name="kaffinalarabic" unicode="&#x643;" horiz-adv-x="928" arabic-form="final" 
d="M523 461q-16 79 -97 79q-47 0 -73.5 -29t-26.5 -79q0 -22 8 -43h-49v-49h236v49h-132q-12 17 -12 44q0 66 50 66q39 0 46 -42zM940 0v70h-186q19 39 19 106v471h-70v-440q0 -80 -21.5 -108.5t-77.5 -28.5h-290q-212 0 -212 221v164h-70v-164q0 -291 288 -291h620z" />
    <glyph glyph-name="kafinitialarabic" unicode="&#x643;" horiz-adv-x="700" arabic-form="initial" 
d="M657 101q0 154 -88 246q-90 94 -242 94h-89l119 205h-83q-127 -228 -153 -274h206q127 0 192 -81q55 -68 55 -185q0 -12 -2 -36h-608v-70h693v101z" />
    <glyph glyph-name="kafmedialarabic" unicode="&#x643;" horiz-adv-x="758" arabic-form="medial" 
d="M782 0v70h-137v31q0 154 -88 246q-90 94 -242 94h-89l119 205h-83q-127 -228 -153 -274h206q127 0 192 -81q55 -68 55 -185q0 -12 -2 -36h-608v-70h830z" />
    <glyph glyph-name="lamfinalarabic" unicode="&#x644;" horiz-adv-x="734" arabic-form="final" 
d="M754 0v70h-170q13 49 13 108v469h-70v-455q0 -133 -57 -211.5t-155 -78.5q-97 0 -155 80t-58 210v82h-70v-96q0 -149 80 -246.5t203 -97.5q78 0 143 44t102 122h194z" />
    <glyph glyph-name="laminitialarabic" unicode="&#x644;" horiz-adv-x="269" arabic-form="initial" 
d="M226 647h-70v-440q0 -69 -15 -96q-21 -42 -85 -42h-64v-69h87q147 0 147 176v471z" />
    <glyph glyph-name="lammedialarabic" unicode="&#x644;" horiz-adv-x="328" arabic-form="medial" 
d="M337 0v70h-130q19 39 19 106v471h-70v-440q0 -69 -15 -97q-21 -41 -85 -41h-64v-69h345z" />
    <glyph glyph-name="meemfinalarabic" unicode="&#x645;" horiz-adv-x="956" arabic-form="final" 
d="M967 0q-1 9 -1 31q0 25 1 39h-41q-75 0 -124.5 43.5t-56.5 117.5q-11 106 -64.5 164.5t-141.5 58.5h-293q-214 0 -214 -277v-339h70v335q0 103 38 161.5t106 58.5h137q-59 -64 -59 -164q0 -102 55.5 -164t154.5 -62q131 0 185 115q48 -118 215 -118h33zM658 235
q0 -167 -124 -167q-58 0 -91 42.5t-33 113.5q0 78 33.5 122t94.5 44q57 0 88.5 -41t31.5 -114z" />
    <glyph glyph-name="meeminitialarabic" unicode="&#x645;" horiz-adv-x="600" arabic-form="initial" 
d="M557 140q0 100 -52 161q-56 65 -154 65t-155 -64t-57 -163q0 -37 9 -69h-164v-70h193q57 -87 173 -87q96 0 153 67q54 63 54 160zM476 147q0 -171 -126 -171q-65 0 -99 49q-29 43 -29 110q0 72 29 116q35 53 103 53q63 0 96 -49q26 -41 26 -108z" />
    <glyph glyph-name="meemmedialarabic" unicode="&#x645;" horiz-adv-x="618" arabic-form="medial" 
d="M631 0v70h-122q9 33 9 70q0 99 -53 161q-56 65 -154 65t-155 -64q-56 -65 -56 -163q0 -35 8 -69h-118v-70h148q56 -87 172 -87q111 0 168 87h153zM436 147q0 -171 -126 -171q-65 0 -99 49q-28 41 -28 110q0 73 28 116q35 53 103 53q64 0 95 -49q27 -41 27 -108z" />
    <glyph glyph-name="noonfinalarabic" unicode="&#x646;" horiz-adv-x="734" arabic-form="final" 
d="M349 526v85h-71v-85h71zM757 0v70h-173q13 49 13 108v276h-70v-262q0 -133 -57 -211.5t-155 -78.5t-155.5 80t-57.5 210v262h-70v-276q0 -149 80 -246.5t203 -97.5q78 0 143 44t102 122h197z" />
    <glyph glyph-name="nooninitialarabic" unicode="&#x646;" horiz-adv-x="269" arabic-form="initial" 
d="M226 526v85h-71v-85h71zM226 454h-70v-247q0 -69 -15 -96q-21 -42 -85 -42h-64v-69h87q147 0 147 176v278z" />
    <glyph glyph-name="noonmedialarabic" unicode="&#x646;" horiz-adv-x="328" arabic-form="medial" 
d="M227 526v85h-71v-85h71zM337 0v70h-130q19 39 19 106v278h-70v-247q0 -69 -15 -97q-21 -41 -85 -41h-64v-69h345z" />
    <glyph glyph-name="hehfinalarabic" unicode="&#x647;" horiz-adv-x="590" arabic-form="final" 
d="M600 0v69h-38q-61 0 -94.5 42t-33.5 117v321h-212q-85 0 -137.5 -67.5t-52.5 -174.5q0 -100 51 -169t127 -69q108 0 153 77q44 -146 191 -146h46zM362 320q-3 -196 -129 -196q-57 0 -94 54.5t-37 132.5q0 80 37 133t96 53h127v-177z" />
    <glyph glyph-name="hehinitialarabic" unicode="&#x647;" horiz-adv-x="696" arabic-form="initial" 
d="M638 0q15 70 15 137q0 149 -71 253q-39 59 -106 104.5t-126 56.5v-72q100 -29 167.5 -118t67.5 -210q0 -42 -9 -81h-147q47 55 47 138q0 88 -48.5 141t-128.5 53q-81 0 -131 -55t-50 -140q0 -84 45 -138h-171v-69h646zM404 212q0 -142 -106 -142q-50 0 -78.5 36.5
t-28.5 96.5q0 67 28.5 104t82.5 37q49 0 75.5 -34t26.5 -98z" />
    <glyph glyph-name="hehmedialarabic" unicode="&#x647;" horiz-adv-x="732" arabic-form="medial" 
d="M764 0v70h-114q3 33 3 67q0 149 -71 253q-39 59 -106 104.5t-126 56.5v-72q100 -29 167.5 -118t67.5 -210q0 -42 -9 -81h-147q47 55 47 138q0 88 -48.5 141t-128.5 53q-81 0 -131 -55t-50 -140q0 -84 45 -138h-171v-69h772zM404 212q0 -142 -106 -142q-50 0 -78.5 36.5
t-28.5 96.5q0 67 28.5 104t82.5 37q49 0 75.5 -34t26.5 -98z" />
    <glyph glyph-name="wawfinalarabic" unicode="&#x648;" horiz-adv-x="561" arabic-form="final" 
d="M573 0v69h-130v186q0 97 -47.5 148.5t-132.5 51.5t-144 -66q-57 -66 -57 -163q0 -98 54 -162t138 -64h109q-26 -97 -122 -97h-9v-67q173 11 203 164h138zM371 70l-116 -1q-59 0 -93 57q-28 46 -28 107q0 57 32 104q36 53 93 53q55 0 85 -35q27 -30 27 -74v-211z" />
    <glyph glyph-name="alefmaksurafinalarabic" unicode="&#x649;" horiz-adv-x="864" arabic-form="final" 
d="M875 0v70h-21q-56 0 -86.5 27.5t-58.5 100.5q-23 59 -76 101t-100 42q-54 0 -54 -2h1v-63q62 0 96 -34.5t34 -101.5q0 -91 -75.5 -161.5t-175.5 -70.5q-118 0 -187 81.5t-69 217.5v87h-71v-100q0 -150 93 -253t231 -103q129 0 223.5 88t94.5 212q17 -64 67 -101t119 -37
h15z" />
    <glyph glyph-name="yehfinalarabic" unicode="&#x64a;" horiz-adv-x="864" arabic-form="final" 
d="M875 0v70h-21q-56 0 -86.5 27.5t-58.5 100.5q-23 59 -76 101t-100 42q-54 0 -54 -2h1v-63q62 0 96 -34.5t34 -101.5q0 -91 -75.5 -161.5t-175.5 -70.5q-118 0 -187 81.5t-69 217.5v87h-71v-100q0 -150 93 -253t231 -103q129 0 223.5 88t94.5 212q17 -64 67 -101t119 -37
h15zM465 -323v85h-71v-85h71zM334 -323v85h-71v-85h71z" />
    <glyph glyph-name="yehinitialarabic" unicode="&#x64a;" horiz-adv-x="301" arabic-form="initial" 
d="M232 454h-70v-247q0 -69 -15 -96q-21 -42 -85 -42h-65v-69h88q147 0 147 176v278zM231 -153v85h-71v-85h71zM100 -153v85h-71v-85h71z" />
    <glyph glyph-name="yehmedialarabic" unicode="&#x64a;" horiz-adv-x="328" arabic-form="medial" 
d="M337 0v70h-130q19 39 19 106v278h-70v-247q0 -69 -15 -97q-21 -41 -85 -41h-64v-69h345zM227 -153v85h-71v-85h71zM96 -153v85h-71v-85h71z" />
    <glyph glyph-name=".notdef" horiz-adv-x="500" 
d="M63 0h375v750h-375v-750zM125 63v625h250v-625h-250z" />
    <glyph glyph-name=".null" 
 />
    <glyph glyph-name="nonmarkingreturn" horiz-adv-x="333" 
 />
    <glyph glyph-name="space" unicode=" " horiz-adv-x="178" 
 />
    <glyph glyph-name="exclam" unicode="!" horiz-adv-x="185" 
d="M105 393v255h-73v-255q0 -6 8 -94l14 -167h29l15 167q7 77 7 94zM105 0v77h-73v-77h73z" />
    <glyph glyph-name="quotedbl" unicode="&#x22;" horiz-adv-x="251" 
d="M103 686h-82l27 -272h30zM228 686h-82l27 -272h30z" />
    <glyph glyph-name="dollar" unicode="$" horiz-adv-x="540" 
d="M457 201q0 108 -179 159v172q35 -7 62 -31t35 -57l68 5q-36 115 -165 139v80h-51v-80q-65 -6 -111 -41q-51 -39 -51 -102q0 -107 162 -151v-185q-46 7 -78 36.5t-43 75.5l-74 -7q16 -74 73 -117q49 -38 122 -47v-86h51v86q68 0 121 39q58 43 58 112zM227 374
q-44 14 -59 24q-30 22 -30 54q0 36 28 59q26 20 61 23v-160zM381 189q0 -73 -103 -82v173q103 -29 103 -91z" />
    <glyph glyph-name="quotesingle" unicode="'" horiz-adv-x="126" 
d="M103 686h-82l27 -272h30z" />
    <glyph glyph-name="parenleft" unicode="(" horiz-adv-x="322" 
d="M293 -108q-79 63 -126 173q-46 110 -46 238q0 126 40 220t130 177l-31 37q-225 -163 -225 -441q0 -265 228 -446z" />
    <glyph glyph-name="parenright" unicode=")" horiz-adv-x="322" 
d="M290 293q0 264 -227 446l-31 -42q79 -61 126 -173q46 -108 46 -237q0 -243 -171 -399l31 -36q226 165 226 441z" />
    <glyph glyph-name="at" unicode="*" horiz-adv-x="329" 
d="M299 139v42l-116 -11l66 102l-34 23l-51 -118l-48 118l-38 -24l67 -103l-115 13v-43l115 9l-65 -105l37 -24l47 118l52 -113l38 19l-68 105z" />
    <glyph glyph-name="plus" unicode="+" horiz-adv-x="616" 
d="M274 32h68v214h214v68h-214v214h-68v-214h-214v-68h214v-214z" />
    <glyph glyph-name="hyphen" unicode="-" horiz-adv-x="642" 
d="M582 195v69h-522v-69h522z" />
    <glyph glyph-name="period" unicode="." horiz-adv-x="176" 
d="M116 0v104h-91v-104h91z" />
    <glyph glyph-name="slash" unicode="/" horiz-adv-x="349" 
d="M317 648h-70l-215 -648h71z" />
    <glyph glyph-name="zero" unicode="0" horiz-adv-x="274" 
d="M186 119v139l-98 60v-138z" />
    <glyph glyph-name="one" unicode="1" horiz-adv-x="202" 
d="M136 0v645l-70 -54v-591h70z" />
    <glyph glyph-name="two" unicode="2" horiz-adv-x="477" 
d="M411 584v63q-40 -1 -85 -1q-145 0 -211 -116q-49 -85 -49 -217v-313h70v324q0 107 41 175q51 85 155 85h79z" />
    <glyph glyph-name="three" unicode="3" horiz-adv-x="538" 
d="M472 557v89h-62v-61q0 -71 -31 -105.5t-113 -34.5q48 9 48 112v89h-60v-61q0 -70 -24 -100t-95 -30v192h-69v-647h70v384h152q85 0 134.5 46t49.5 127z" />
    <glyph glyph-name="four" unicode="4" horiz-adv-x="490" 
d="M424 0v63h-161q-56 0 -91 35t-35 88t36 88.5t90 35.5h19.5h16t11.5 -0.5t8 -0.5h2v61h-52q-50 0 -84 31.5t-34 80.5q0 46 32 75t86 29h133v60h-153q-74 0 -120 -40.5t-46 -108.5q0 -113 99 -157q-115 -31 -115 -166q0 -76 56.5 -125t141.5 -49h160z" />
    <glyph glyph-name="five" unicode="5" horiz-adv-x="567" 
d="M501 282q0 93 -90 198q-69 80 -128 110q-58 -28 -128 -110q-89 -106 -89 -198q0 -108 59.5 -173t156.5 -65q98 0 158.5 66t60.5 172zM424 276q0 -80 -37.5 -126.5t-103.5 -46.5q-64 0 -102.5 47t-38.5 126q0 62 43.5 137.5t97.5 107.5q55 -31 98 -106.5t43 -138.5z" />
    <glyph glyph-name="six" unicode="6" horiz-adv-x="477" 
d="M411 313q0 157 -68 245.5t-193 88.5h-84v-63h78q93 0 145 -69.5t52 -190.5v-324h70v313z" />
    <glyph glyph-name="seven" unicode="7" horiz-adv-x="527" 
d="M461 647h-70l-122 -597l-135 597h-68l143 -647h111z" />
    <glyph glyph-name="eight" unicode="8" horiz-adv-x="527" 
d="M461 0l-141 647h-111l-143 -647h68l135 597l122 -597h70z" />
    <glyph glyph-name="nine" unicode="9" horiz-adv-x="510" 
d="M443 444q0 91 -49.5 146.5t-137.5 55.5q-87 0 -138.5 -57t-51.5 -146q0 -91 50.5 -146t138.5 -55q70 0 118 39v-281h70v444zM373 450q0 -156 -118 -156q-55 0 -86.5 39t-31.5 106q0 74 32 114t91 40q55 0 84 -37.5t29 -105.5z" />
    <glyph glyph-name="colon" unicode=":" horiz-adv-x="176" 
d="M116 198v103h-91v-103h91zM116 0v104h-91v-104h91z" />
    <glyph glyph-name="less" unicode="&#x3c;" horiz-adv-x="542" 
d="M447 0l-234 233l234 234h-89l-234 -234l234 -233h89z" />
    <glyph glyph-name="equal" unicode="=" horiz-adv-x="605" 
d="M545 327v68h-485v-68h485zM545 150v69h-485v-69h485z" />
    <glyph glyph-name="greater" unicode="&#x3e;" horiz-adv-x="542" 
d="M418 233l-234 234h-79l234 -234l-234 -233h79z" />
    <glyph glyph-name="bracketleft" unicode="[" horiz-adv-x="234" 
d="M202 -133v55h-96v743h96v54h-170v-852h170z" />
    <glyph glyph-name="backslash" unicode="\" horiz-adv-x="344" 
d="M312 0l-213 648h-71l215 -648h69z" />
    <glyph glyph-name="bracketright" unicode="]" horiz-adv-x="234" 
d="M202 -132v851h-170v-54h96v-743h-96v-54h170z" />
    <glyph glyph-name="underscore" unicode="_" horiz-adv-x="382" 
d="M365 -80v64h-349v-64h349z" />
    <glyph glyph-name="braceleft" unicode="{" horiz-adv-x="375" 
d="M334 -141v33q-79 1 -111.5 20t-32.5 75v202q0 53 -72 100q72 55 72 99v202q0 59 29 79t114 20v38q-114 0 -163.5 -32t-49.5 -105v-202q0 -31 -23 -57.5t-59 -41.5h-2q84 -55 84 -100v-202q0 -68 43 -99t142 -31z" />
    <glyph glyph-name="bar" unicode="|" horiz-adv-x="132" 
d="M34 -141h63v866h-63v-866z" />
    <glyph glyph-name="braceright" unicode="}" horiz-adv-x="375" 
d="M36 -141v33q79 1 111.5 20t32.5 75v202q0 53 72 100q-72 55 -72 99v202q0 59 -29 79t-114 20v38q114 0 163.5 -32t49.5 -105v-202q0 -31 23 -57.5t59 -41.5h2q-84 -55 -84 -100v-202q0 -68 -43 -99t-142 -31z" />
    <glyph glyph-name="nbspace" unicode="&#xa0;" horiz-adv-x="623" 
 />
    <glyph glyph-name="guillemotleft" unicode="&#xab;" horiz-adv-x="245" 
d="M209 45q-30 41 -42 72q-14 40 -14 93q0 105 55 169l-10 13q-78 -72 -78 -176t78 -182zM117 45q-30 42 -41 72q-14 40 -14 93q0 105 55 169l-11 13q-77 -72 -77 -176q0 -103 77 -182z" />
    <glyph glyph-name="guillemotright" unicode="&#xbb;" horiz-adv-x="245" 
d="M211 216q0 104 -76 176l-11 -13q54 -65 54 -169q0 -53 -14 -93q-10 -29 -40 -72l10 -11q77 79 77 182zM121 216q0 104 -78 176l-11 -13q56 -65 56 -169q0 -53 -14 -93q-12 -31 -42 -72l11 -11q78 78 78 182z" />
    <glyph glyph-name="multiply" unicode="&#xd7;" horiz-adv-x="566" 
d="M84 128l49 -48l150 152l152 -151l48 49l-152 150l151 152l-49 48l-150 -152l-152 151l-48 -49l152 -150z" />
    <glyph glyph-name="divide" unicode="&#xf7;" horiz-adv-x="618" 
d="M351 378v101h-82v-101h82zM570 240v75h-522v-75h522zM351 76v101h-82v-101h82z" />
    <glyph glyph-name="commaarabic" unicode="&#x60c;" horiz-adv-x="176" 
d="M116 0v101h-40q0 55 30 144h-43q-38 -93 -38 -190v-55h91z" />
    <glyph glyph-name="semicolonarabic" unicode="&#x61b;" horiz-adv-x="176" 
d="M116 197v100h-40q0 57 30 144h-43q-38 -93 -38 -189v-55h91zM116 0v104h-91v-104h91z" />
    <glyph glyph-name="questionarabic" unicode="&#x61f;" horiz-adv-x="484" 
d="M451 435q0 105 -54.5 163.5t-150.5 58.5q-94 0 -154 -53t-60 -142q0 -68 53 -120.5t122 -57.5v-146h73v213q-171 0 -171 121q0 51 37.5 83.5t95.5 32.5q60 0 94.5 -41.5t34.5 -111.5h80zM285 0v90h-82v-90h82z" />
    <glyph glyph-name="tatweelarabic" unicode="&#x640;" horiz-adv-x="198" 
d="M206 0v70h-211v-70h211z" />
    <glyph glyph-name="maddaabove" unicode="&#x653;" 
d="M223 669l-17 23q-24 -27 -44 -27q-13 0 -46 16q-36 17 -52 17q-34 0 -60 -39l17 -23q24 29 41 29q15 0 49 -17t50 -17q30 0 62 38z" />
    <glyph glyph-name="hamzaabove" unicode="&#x654;" 
d="M204 742q-13 64 -78 64q-41 0 -61.5 -24t-20.5 -64q0 -20 7 -35h-40v-40h191v40h-107q-10 14 -10 36q0 54 41 54q31 0 37 -35z" />
    <glyph glyph-name="hamzabelow" unicode="&#x655;" 
d="M186 -105q-14 63 -78 63q-40 0 -63 -26q-18 -22 -18 -61q0 -20 6 -35h-39v-40h192v40h-108q-10 13 -10 35q0 54 41 54q30 0 38 -35z" />
    <glyph glyph-name="zeroarabic" unicode="&#x660;" horiz-adv-x="274" 
d="M186 119v139l-98 60v-138z" />
    <glyph glyph-name="onearabic" unicode="&#x661;" horiz-adv-x="202" 
d="M136 0v645l-70 -54v-591h70z" />
    <glyph glyph-name="twoarabic" unicode="&#x662;" horiz-adv-x="477" 
d="M411 584v63q-40 -1 -85 -1q-145 0 -211 -116q-49 -85 -49 -217v-313h70v324q0 107 41 175q51 85 155 85h79z" />
    <glyph glyph-name="threearabic" unicode="&#x663;" horiz-adv-x="538" 
d="M472 557v89h-62v-61q0 -71 -31 -105.5t-113 -34.5q48 9 48 112v89h-60v-61q0 -70 -24 -100t-95 -30v192h-69v-647h70v384h152q85 0 134.5 46t49.5 127z" />
    <glyph glyph-name="fourarabic" unicode="&#x664;" horiz-adv-x="490" 
d="M424 0v63h-161q-56 0 -91 35t-35 88t36 88.5t90 35.5h19.5h16t11.5 -0.5t8 -0.5h2v61h-52q-50 0 -84 31.5t-34 80.5q0 46 32 75t86 29h133v60h-153q-74 0 -120 -40.5t-46 -108.5q0 -113 99 -157q-115 -31 -115 -166q0 -76 56.5 -125t141.5 -49h160z" />
    <glyph glyph-name="fivearabic" unicode="&#x665;" horiz-adv-x="567" 
d="M501 282q0 93 -90 198q-69 80 -128 110q-58 -28 -128 -110q-89 -106 -89 -198q0 -108 59.5 -173t156.5 -65q98 0 158.5 66t60.5 172zM424 276q0 -80 -37.5 -126.5t-103.5 -46.5q-64 0 -102.5 47t-38.5 126q0 62 43.5 137.5t97.5 107.5q55 -31 98 -106.5t43 -138.5z" />
    <glyph glyph-name="sixarabic" unicode="&#x666;" horiz-adv-x="477" 
d="M411 313q0 157 -68 245.5t-193 88.5h-84v-63h78q93 0 145 -69.5t52 -190.5v-324h70v313z" />
    <glyph glyph-name="sevenarabic" unicode="&#x667;" horiz-adv-x="527" 
d="M461 647h-70l-122 -597l-135 597h-68l143 -647h111z" />
    <glyph glyph-name="eightarabic" unicode="&#x668;" horiz-adv-x="527" 
d="M461 0l-141 647h-111l-143 -647h68l135 597l122 -597h70z" />
    <glyph glyph-name="ninearabic" unicode="&#x669;" horiz-adv-x="510" 
d="M443 444q0 91 -49.5 146.5t-137.5 55.5q-87 0 -138.5 -57t-51.5 -146q0 -91 50.5 -146t138.5 -55q70 0 118 39v-281h70v444zM373 450q0 -156 -118 -156q-55 0 -86.5 39t-31.5 106q0 74 32 114t91 40q55 0 84 -37.5t29 -105.5z" />
    <glyph glyph-name="percentarabic" unicode="&#x66a;" horiz-adv-x="349" 
d="M146 532v105h-91v-105h91zM317 648h-70l-215 -648h71zM299 12v105h-91v-105h91z" />
    <glyph glyph-name="decimalseparatorarabic" unicode="&#x66b;" horiz-adv-x="158" 
d="M24 135v-101h40q0 -56 -30 -144h43q38 93 38 190v55h-91z" />
    <glyph glyph-name="thousandsseparatorarabic" unicode="&#x66c;" horiz-adv-x="158" 
d="M24 135v-101h40q0 -56 -30 -144h43q38 93 38 190v55h-91z" />
    <glyph glyph-name="asteriskarabic" unicode="&#x66d;" horiz-adv-x="500" 
d="M447 245l-9 20l-138 -20l-38 143h-20l-39 -143l-138 21l-9 -21l117 -93l-52 -139l17 -13l114 94l113 -94l17 15l-51 138z" />
    <glyph glyph-name="superscriptalef" unicode="&#x670;" 
d="M23 744h34v174h-34v-174z" />
    <glyph glyph-name="extendedarabicindicdigitzero" unicode="&#x6f0;" horiz-adv-x="274" 
d="M186 119v139l-98 60v-138z" />
    <glyph glyph-name="extendedarabicindicdigitone" unicode="&#x6f1;" horiz-adv-x="202" 
d="M136 0v645l-70 -54v-591h70z" />
    <glyph glyph-name="extendedarabicindicdigittwo" unicode="&#x6f2;" horiz-adv-x="477" 
d="M411 584v63q-40 -1 -85 -1q-145 0 -211 -116q-49 -85 -49 -217v-313h70v324q0 107 41 175q51 85 155 85h79z" />
    <glyph glyph-name="extendedarabicindicdigitthree" unicode="&#x6f3;" horiz-adv-x="538" 
d="M472 557v89h-62v-61q0 -71 -31 -105.5t-113 -34.5q48 9 48 112v89h-60v-61q0 -70 -24 -100t-95 -30v192h-69v-647h70v384h152q85 0 134.5 46t49.5 127z" />
    <glyph glyph-name="extendedarabicindicdigitfour" unicode="&#x6f4;" horiz-adv-x="490" 
d="M424 0v63h-161q-56 0 -91 35t-35 88t36 88.5t90 35.5h19.5h16t11.5 -0.5t8 -0.5h2v61h-52q-50 0 -84 31.5t-34 80.5q0 46 32 75t86 29h133v60h-153q-74 0 -120 -40.5t-46 -108.5q0 -113 99 -157q-115 -31 -115 -166q0 -76 56.5 -125t141.5 -49h160z" />
    <glyph glyph-name="extendedarabicindicdigitfive" unicode="&#x6f5;" horiz-adv-x="567" 
d="M501 282q0 93 -90 198q-69 80 -128 110q-58 -28 -128 -110q-89 -106 -89 -198q0 -108 59.5 -173t156.5 -65q98 0 158.5 66t60.5 172zM424 276q0 -80 -37.5 -126.5t-103.5 -46.5q-64 0 -102.5 47t-38.5 126q0 62 43.5 137.5t97.5 107.5q55 -31 98 -106.5t43 -138.5z" />
    <glyph glyph-name="extendedarabicindicdigitsix" unicode="&#x6f6;" horiz-adv-x="477" 
d="M411 313q0 157 -68 245.5t-193 88.5h-84v-63h78q93 0 145 -69.5t52 -190.5v-324h70v313z" />
    <glyph glyph-name="extendedarabicindicdigitseven" unicode="&#x6f7;" horiz-adv-x="527" 
d="M461 647h-70l-122 -597l-135 597h-68l143 -647h111z" />
    <glyph glyph-name="extendedarabicindicdigiteight" unicode="&#x6f8;" horiz-adv-x="527" 
d="M461 0l-141 647h-111l-143 -647h68l135 597l122 -597h70z" />
    <glyph glyph-name="extendedarabicindicdigitnine" unicode="&#x6f9;" horiz-adv-x="510" 
d="M443 444q0 91 -49.5 146.5t-137.5 55.5q-87 0 -138.5 -57t-51.5 -146q0 -91 50.5 -146t138.5 -55q70 0 118 39v-281h70v444zM373 450q0 -156 -118 -156q-55 0 -86.5 39t-31.5 106q0 74 32 114t91 40q55 0 84 -37.5t29 -105.5z" />
    <glyph glyph-name="zeronojoin" unicode="&#x200c;" horiz-adv-x="20" 
d="M20 0v722h-20v-722h20z" />
    <glyph glyph-name="zerojoin" unicode="&#x200d;" horiz-adv-x="20" 
d="M71 663l-47 48l47 47l-14 14l-47 -48l-47 48l-14 -14l48 -47l-48 -48l14 -13l37 37v-687h20v687l37 -37z" />
    <glyph glyph-name="lefttoright" unicode="&#x200e;" horiz-adv-x="20" 
d="M134 711l-60 61l-14 -14l36 -36h-96v-722h20v702h78l-38 -38l14 -14z" />
    <glyph glyph-name="righttoleft" unicode="&#x200f;" horiz-adv-x="20" 
d="M20 0v722h-96l36 36l-14 14l-60 -61l60 -61l14 14l-38 38h78v-702h20z" />
    <glyph glyph-name="hyphenminus" unicode="&#x2010;" horiz-adv-x="454" 
d="M24 192h421v39h-421v-39z" />
    <glyph glyph-name="quotedblleft" unicode="&#x201c;" horiz-adv-x="267" 
d="M237 647h-26q-70 -64 -70 -108v-81h80v72q-31 0 -31 25q0 49 47 92zM130 647h-25q-71 -65 -71 -108v-81h80v72q-31 0 -31 25q0 49 47 92z" />
    <glyph glyph-name="quotedblright" unicode="&#x201d;" horiz-adv-x="267" 
d="M237 565v82h-79v-73q30 0 30 -25q0 -48 -47 -91h25q71 65 71 107zM130 565v82h-79v-73q31 0 31 -25q0 -49 -48 -91h25q71 65 71 107z" />
    <glyph glyph-name="delete" unicode="&#x2421;" horiz-adv-x="709" 
d="M674 57v31h-127v229h-36v-260h163zM479 57v31h-159v88h143v31h-143v79h153v31h-189v-260h195zM253 189q0 106 -79 124q-13 4 -46 4h-90v-260h95q21 0 41 5q79 19 79 127zM218 189q0 -55 -26 -83q-20 -18 -63 -18h-56v198h55q29 0 44 -5q46 -18 46 -92z" />
    <glyph glyph-name="ornateleftparenthesis" unicode="&#xfd3e;" horiz-adv-x="322" 
d="M293 -108q-79 63 -126 173q-46 110 -46 238q0 126 40 220t130 177l-31 37q-225 -163 -225 -441q0 -265 228 -446z" />
    <glyph glyph-name="ornaterightparenthesis" unicode="&#xfd3f;" horiz-adv-x="322" 
d="M290 293q0 264 -227 446l-31 -42q79 -61 126 -173q46 -108 46 -237q0 -243 -171 -399l31 -36q226 165 226 441z" />
    <glyph glyph-name="zerowidthnobreakspace" unicode="&#xfeff;" 
 />
    <glyph glyph-name="CR" horiz-adv-x="333" 
 />
    <glyph glyph-name="_4" horiz-adv-x="280" 
 />
    <glyph glyph-name="_13" horiz-adv-x="273" 
 />
    <glyph glyph-name="kashidaautoarabic" horiz-adv-x="198" 
d="M206 0v68h-212v-68h212z" />
    <glyph glyph-name="nonbreakingspace" horiz-adv-x="623" 
 />
    <glyph glyph-name="_246" 
 />
    </font>
</defs>
</svg>
