<?xml version="1.0" encoding="UTF-8" standalone="no"?>
<!DOCTYPE svg  PUBLIC '-//W3C//DTD SVG 1.1//EN'  'http://www.w3.org/Graphics/SVG/1.1/DTD/svg11.dtd'>
<svg xmlns="http://www.w3.org/2000/svg">
<defs>
<font id="FrutigerLTArabic-45Light" horiz-adv-x="1139">
<font-face underline-position="-75" font-weight="300" descent="-410" panose-1="1 0 0 0 0 0 0 0 0 0" units-per-em="2048" unicode-range="U+000D-25CA" bbox="-311 -512 2048 1892" x-height="1044" underline-thickness="50" font-family="FrutigerLTArabic" ascent="1638" cap-height="1430"/>
<missing-glyph horiz-adv-x="2048"/>
<glyph glyph-name=".notdef" horiz-adv-x="2048"/>
<glyph glyph-name=".null" horiz-adv-x="2048"/>
<glyph glyph-name=".null" horiz-adv-x="2048"/>
<glyph glyph-name="nonmarkingreturn" horiz-adv-x="0" unicode=""/>
<glyph glyph-name="space" horiz-adv-x="569" unicode=" "/>
<glyph glyph-name="space" horiz-adv-x="569" unicode=" "/>
<glyph glyph-name="exclam" horiz-adv-x="797" unicode="!" d="M457 346h-117l-25 1084h166zM315 172h166v-172h-166v172z"/>
<glyph glyph-name="quotedbl" d="M367 1430h129v-447h-129v447zM643 1430h129v-447h-129v447z" unicode='&quot;'/>
<glyph glyph-name="numbersign" d="M283 449h-213v110h227l45 311h-219v111h233l64 449h125l-64 -449h267l63 449h125l-64 -449h197v-111h-211l-43 -311h197v-110h-213l-64 -449h-125l64 449h-266l-64 -449h-125zM733 870h-266l-43 -311h266z" unicode="#"/>
<glyph glyph-name="dollar" d="M631 117q49 13 86 39t62 61.5t37.5 79.5t12.5 94q0 43 -18.5 78.5t-47 65t-63.5 52.5t-69 42v-512zM526 1321q-47 -8 -86 -27.5t-67 -49.5t-43 -70.5t-15 -88.5q0 -42 20.5 -78t52 -65.5t68.5 -53.5t70 -42v475zM631 1579v-125q72 0 140.5 -10.5t135.5 -36.5l-22 -129 q-59 30 -123.5 41t-130.5 12v-543q65 -32 126 -69.5t108.5 -86t76.5 -110.5t29 -143q0 -80 -24.5 -145t-69.5 -114.5t-107.5 -82.5t-138.5 -49v-170h-105v159q-20 -3 -45 -3q-36 0 -77.5 5t-82.5 13.5t-78.5 20t-64.5 24.5l15 145q69 -48 150.5 -66t164.5 -18q5 0 9 0.5 t9 1.5v588q-38 23 -78.5 47t-79.5 50.5t-74.5 56.5t-62 66t-42 79t-15.5 94q0 78 28 140.5t76 108t112 75t136 41.5v133h105z" unicode="$"/>
<glyph glyph-name="percent" horiz-adv-x="2048" unicode="%" d="M1186 369q0 79 18 148.5t56.5 121.5t100 82.5t148.5 30.5q89 0 151 -29.5t100.5 -81.5t55.5 -121.5t17 -150.5q0 -80 -17.5 -150t-56 -122t-100.5 -81.5t-150 -29.5q-86 0 -147.5 30.5t-100.5 82.5t-57 122t-18 148zM1315 369q0 -46 9.5 -94.5t32 -88t60 -65t92.5 -25.5 q58 0 96 24.5t60 63.5t30.5 88t8.5 97q0 50 -8 98.5t-29.5 87t-59.5 62.5t-98 24q-57 0 -94.5 -24.5t-59.5 -63.5t-31 -87.5t-9 -96.5zM215 1061q0 79 18 148.5t57 121.5t100.5 82.5t148.5 30.5q89 0 150.5 -30t100 -81.5t55.5 -121.5t17 -150t-17.5 -150t-55.5 -121.5 t-100 -81.5t-150 -30q-87 0 -148.5 30.5t-100.5 82.5t-57 122t-18 148zM344 1061q0 -46 10 -94.5t32.5 -88t60 -65t92.5 -25.5q58 0 95.5 25t59.5 64t30.5 87.5t8.5 96.5q0 50 -8 98.5t-29.5 87t-59 62.5t-97.5 24q-57 0 -95 -24.5t-60 -63.5t-31 -87.5t-9 -96.5zM1386 1475 h119l-846 -1520h-118z"/>
<glyph glyph-name="ampersand" horiz-adv-x="1366" unicode="&amp;" d="M1008 350q122 194 122 423v11h123q0 -141 -39 -270.5t-120 -245.5l243 -264h-180l-151 160q-90 -96 -197 -142.5t-238 -46.5q-93 0 -178 24.5t-149.5 74t-103 125t-38.5 176.5q0 81 26 146t71.5 116t107.5 89t133 65q-33 36 -66 76.5t-59.5 84.5t-43.5 92t-17 99 q0 78 34 136.5t88.5 97.5t123.5 58t139 19q68 0 129 -18.5t107 -55.5t73 -92.5t27 -128.5q0 -60 -15.5 -107t-44 -85t-68.5 -68.5t-89 -58.5q-32 -18 -63.5 -35.5t-63.5 -34.5zM512 711q-51 -20 -99.5 -52t-86 -74.5t-60 -94t-22.5 -109.5q0 -71 27 -126t72.5 -92.5 t105.5 -57t126 -19.5q49 0 98.5 12t95 34t86 52.5t73.5 67.5zM395 1135q0 -40 15.5 -80t39.5 -77.5t52.5 -71.5t54.5 -62q48 24 97.5 49t89.5 58.5t65 78t25 107.5q0 98 -52.5 152t-150.5 54q-48 0 -90.5 -13.5t-75 -40t-51.5 -65t-19 -89.5z"/>
<glyph glyph-name="quotesingle" horiz-adv-x="569" unicode="&apos;" d="M221 1430h129v-447h-129v447z"/>
<glyph glyph-name="parenleft" horiz-adv-x="569" unicode="(" d="M436 -287q-68 106 -128 214.5t-113 222.5q-53 115 -81 234.5t-28 246.5t28 247.5t81 235.5q52 114 112 222t129 212h86q-58 -108 -109 -217.5t-98 -222.5q-48 -115 -74 -233.5t-26 -243.5t26 -242.5t74 -232.5q47 -114 98 -224t109 -219h-86z"/>
<glyph glyph-name="parenright" horiz-adv-x="569" unicode=")" d="M133 1548q69 -101 132.5 -210t111.5 -224.5t77 -236.5t29 -246q0 -126 -29 -247t-77.5 -236t-112 -224t-131.5 -211h-86q60 108 112.5 218t98.5 225t71 233t25 242t-25 243t-71 234q-46 114 -98.5 223.5t-112.5 216.5h86z"/>
<glyph glyph-name="asterisk" d="M629 1430l-15 -314l297 115l39 -119l-301 -86l199 -244l-103 -77l-176 268l-172 -268l-100 77l192 244l-301 86l35 119l301 -115l-14 314h119z" unicode="*"/>
<glyph glyph-name="plus" horiz-adv-x="1229" unicode="+" d="M94 590h449v448h141v-448h449v-141h-449v-449h-141v449h-449v141z"/>
<glyph glyph-name="comma" horiz-adv-x="666" unicode="," d="M278 172h172l-161 -446h-129z"/>
<glyph glyph-name="period" horiz-adv-x="666" unicode="." d="M250 172h166v-172h-166v172z"/>
<glyph glyph-name="slash" horiz-adv-x="569" unicode="/" d="M492 1454h141l-555 -1479h-141z"/>
<glyph glyph-name="zero" d="M569 1321q-75 0 -128.5 -29.5t-90 -78t-58 -111.5t-32.5 -130.5t-14.5 -134t-3.5 -122.5q0 -55 3.5 -121.5t15 -134t33 -130.5t58 -112t89.5 -78.5t128 -29.5q107 0 174.5 58.5t102.5 156.5q17 47 28.5 96.5t16.5 99.5q5 48 5.5 97.5t0.5 97.5q0 49 -0.5 98t-5.5 98 q-5 50 -16.5 100t-28.5 97q-35 99 -101.5 156t-175.5 57zM569 1444q128 0 226.5 -60t152.5 -178q24 -53 41 -111t28 -118t16 -120t5 -118q0 -80 -6 -167.5t-23.5 -171t-49 -159t-84 -132t-127.5 -90t-179 -33.5q-101 0 -175 34t-126 91.5t-84.5 133t-51 159t-25.5 170 t-7 164.5q0 118 21.5 239t71.5 229q53 115 151.5 176.5t224.5 61.5z" unicode="0"/>
<glyph glyph-name="one" d="M575 1430h127v-1430h-141v1270l-231 -203l-78 92z" unicode="1"/>
<glyph glyph-name="two" d="M102 123l328 362q31 34 69 77t76 91t74 100t63.5 104.5t44.5 104.5t17 101q0 55 -18.5 102.5t-51.5 82t-79.5 54t-102.5 19.5q-92 0 -179 -26.5t-165 -75.5l-24 129q83 41 174.5 68.5t185.5 27.5q91 0 167 -22.5t131 -69t85.5 -117t30.5 -166.5q0 -45 -10.5 -89.5 t-28 -87t-40.5 -82t-48 -75.5q-58 -83 -122 -161t-130.5 -153t-135.5 -149t-137 -149h685v-123h-859v123z" unicode="2"/>
<glyph glyph-name="three" d="M307 803q52 0 110.5 2t116.5 10.5t111.5 26.5t94 49.5t65 80t24.5 118.5q0 65 -31 109t-78.5 71t-105.5 39t-112 12q-83 0 -164 -20t-156 -56l-12 133q82 33 169.5 49.5t176.5 16.5q86 0 168 -18t145.5 -59.5t102.5 -109.5t39 -167q0 -68 -23 -123.5t-63 -99t-94.5 -73.5 t-116.5 -46v-5q75 -4 130.5 -32t92.5 -74t55.5 -107.5t18.5 -132.5q0 -72 -21.5 -131t-58.5 -104.5t-88 -78.5t-109 -54.5t-121.5 -32t-126.5 -10.5q-88 0 -174.5 14t-169.5 43l17 135q81 -35 168.5 -52t175.5 -17q66 0 129.5 18t120.5 53q60 38 88 99.5t28 130.5 q0 81 -31 136.5t-106 90.5q-29 14 -60.5 23.5t-64.5 13.5q-39 4 -78 5t-78 1h-104v123z" unicode="3"/>
<glyph glyph-name="four" d="M729 1288h-4l-549 -835h553v835zM47 469l643 961h180v-977h211v-123h-211v-330h-141v330h-682v139z" unicode="4"/>
<glyph glyph-name="five" d="M938 1307h-592l-10 -459q54 18 107.5 24.5t109.5 6.5q102 0 184.5 -25.5t141 -77.5t90.5 -130.5t32 -184.5q0 -121 -38.5 -210t-107.5 -148t-164.5 -88t-209.5 -29q-158 0 -305 51v145q144 -73 305 -73q73 0 141.5 20t121.5 60.5t84.5 101t31.5 141.5q0 88 -25 149.5 t-71.5 100.5t-112.5 56.5t-149 17.5q-78 0 -156 -10.5t-153 -34.5l14 719h731v-123z" unicode="5"/>
<glyph glyph-name="six" d="M571 -14q-97 0 -168.5 29t-122.5 79.5t-83.5 117.5t-51 143t-25.5 157t-7 159q0 72 7.5 143.5t24 140.5t44 135t67.5 127q42 64 98.5 107.5t121.5 70t136.5 38t145.5 11.5q58 0 115.5 -8.5t113.5 -24.5l-12 -135q-58 25 -119.5 35t-124.5 10q-132 0 -223 -49 t-147.5 -131.5t-81.5 -189.5t-25 -224h4q56 91 143.5 133.5t192.5 42.5q107 0 190 -30t139.5 -87t85.5 -140t29 -189q0 -107 -33 -194t-93.5 -148.5t-147 -95t-193.5 -33.5zM594 780q-73 0 -133 -21.5t-103 -62.5t-66.5 -99.5t-23.5 -133.5q0 -69 20 -133t58.5 -113 t96 -78.5t132.5 -29.5q77 0 137 24.5t101 69t62.5 106.5t21.5 137t-17.5 136.5t-54.5 105.5t-94.5 68t-136.5 24z" unicode="6"/>
<glyph glyph-name="seven" d="M852 1307h-733v123h872v-123l-553 -1307h-155z" unicode="7"/>
<glyph glyph-name="eight" d="M139 1110q0 84 39.5 146.5t102 104t138.5 62.5t150 21q80 0 157 -17.5t137 -57.5t97 -103.5t37 -155.5q0 -63 -26 -118.5t-68 -101.5t-94 -83t-104 -64q73 -23 135 -53t107.5 -74t71 -105t25.5 -144q0 -92 -35 -168t-116 -125q-76 -46 -155.5 -67t-168.5 -21 q-84 0 -169 24t-153 71.5t-110.5 119t-42.5 166.5q0 80 25 140t69.5 105t104.5 76.5t131 54.5q-57 27 -108.5 62t-91 80.5t-62.5 101t-23 123.5zM903 379q0 68 -33 116t-82.5 83.5t-108.5 61.5t-110 50q-59 -22 -118.5 -47t-107 -61.5t-77.5 -88t-30 -126.5q0 -30 7.5 -54.5 t22.5 -50.5q25 -42 60 -71t76 -47.5t86.5 -26.5t92.5 -8q64 0 122.5 15.5t103 48.5t70.5 84t26 122zM281 1098q0 -60 28 -106t71 -82t93.5 -63.5t95.5 -51.5q45 21 95.5 50t93 66.5t70.5 83.5t28 103q0 59 -25.5 101t-66.5 69t-92.5 40t-102.5 13t-102.5 -13t-93 -40 t-67 -69t-25.5 -101z" unicode="8"/>
<glyph glyph-name="nine" d="M567 1444q100 0 173 -28.5t124 -78t83 -116t49.5 -142.5t23.5 -158t6 -162q0 -70 -7 -141.5t-23.5 -141t-43 -135.5t-65.5 -126q-42 -64 -99 -108t-123 -71t-138.5 -38.5t-145.5 -11.5q-58 0 -115.5 8.5t-113.5 23.5l12 136q56 -25 115.5 -35t119.5 -10q55 0 111 10.5 t106.5 33t93 57.5t72.5 85q54 91 78.5 193.5t24.5 207.5v6h-4q-27 -44 -64 -76.5t-80.5 -55t-92 -33.5t-99.5 -11q-38 0 -74.5 6.5t-73.5 16.5q-76 21 -132 61.5t-92.5 96t-54.5 123t-18 143.5q0 108 32.5 195t93 148.5t147 94.5t194.5 33zM545 649q74 0 134 21.5 t102.5 62.5t65.5 100t23 134q0 72 -18.5 136.5t-56.5 113t-95.5 76.5t-136.5 28q-77 0 -136.5 -25t-100.5 -69.5t-62.5 -106.5t-21.5 -137q0 -76 17 -137.5t54 -105t94.5 -67.5t137.5 -24z" unicode="9"/>
<glyph glyph-name="colon" horiz-adv-x="666" unicode=":" d="M416 872h-166v172h166v-172zM250 172h166v-172h-166v172z"/>
<glyph glyph-name="semicolon" horiz-adv-x="666" unicode=";" d="M278 172h172l-161 -446h-129zM416 872h-166v172h166v-172z"/>
<glyph glyph-name="less" horiz-adv-x="1229" unicode="&lt;" d="M1133 918l-881 -400l881 -399v-135l-1039 471v127l1039 471v-135z"/>
<glyph glyph-name="equal" horiz-adv-x="1229" unicode="=" d="M94 795h1039v-142h-1039v142zM94 383h1039v-141h-1039v141z"/>
<glyph glyph-name="greater" horiz-adv-x="1229" unicode="&gt;" d="M96 119l883 399l-883 400v135l1039 -471v-127l-1039 -471v135z"/>
<glyph glyph-name="question" horiz-adv-x="1024" unicode="?" d="M176 1403q72 24 147.5 37.5t151.5 13.5q88 0 160 -23t124 -69t80.5 -115t28.5 -160q0 -56 -13 -104.5t-36 -92t-55 -83t-70 -78.5q-66 -68 -119 -149q-19 -30 -30.5 -57t-17.5 -55t-7.5 -58t-1.5 -64h-129v12q0 62 10 121t45 119q24 41 53 79.5t62 72.5q37 38 68 74.5 t53.5 76.5t34.5 85t12 101q0 58 -19 103.5t-53.5 77t-81.5 47.5t-104 16q-75 0 -146 -15.5t-141 -41.5zM373 172h166v-172h-166v172z"/>
<glyph glyph-name="at" horiz-adv-x="1638" unicode="@" d="M545 594q0 -35 8 -70t25.5 -63t45.5 -46t68 -18q49 0 93 20t81.5 53.5t67.5 77t51 91.5t32 97t11 93q0 40 -9.5 74t-29 58.5t-51 38.5t-74.5 14q-32 0 -61 -10t-55 -26.5t-49.5 -37.5t-43.5 -43q-57 -62 -83.5 -141t-26.5 -162zM1087 545q-8 -25 -14 -50t-6 -51 q0 -18 12 -30q5 -10 14 -13.5t19 -3.5q33 0 63 11t56.5 29t49 41.5t40.5 49.5q48 68 70 146.5t22 161.5q0 125 -50 218t-132.5 154.5t-189.5 92t-220 30.5q-133 0 -244 -46.5t-191 -129t-124.5 -194.5t-44.5 -244q0 -131 44.5 -244t124.5 -196.5t191 -131t244 -47.5 q77 0 152.5 12.5t145.5 40t131.5 70.5t111.5 105h125q-55 -90 -127 -156.5t-157 -109.5t-181.5 -64t-200.5 -21q-80 0 -156.5 13.5t-147.5 42t-134 72.5t-115 106q-94 112 -140 235.5t-46 270.5q0 146 46 272t140 238q52 61 115 104.5t134.5 71.5t148 40.5t155.5 12.5 q93 0 183 -17.5t170.5 -52.5t149 -87t118.5 -120.5t78 -154t28 -186.5q0 -118 -40 -223t-126 -187q-30 -29 -64 -56.5t-71 -48.5t-77.5 -34t-84.5 -13q-64 0 -106 30t-55 95h-4q-49 -64 -110.5 -94.5t-141.5 -30.5q-63 0 -114.5 26t-87.5 68.5t-55.5 98t-19.5 115.5 q0 66 15 133t43.5 128.5t69.5 115t93.5 93.5t116 62.5t135.5 22.5q83 0 137 -43t89 -115l43 123h129z"/>
<glyph glyph-name="A" horiz-adv-x="1366" unicode="A" d="M612 1430h160l567 -1430h-147l-154 383h-721l-153 -383h-137zM371 506h620l-309 788z"/>
<glyph glyph-name="B" d="M164 1430h347q78 0 159 -16.5t149 -55.5q37 -22 63.5 -53t42.5 -68t23.5 -78t7.5 -82q0 -134 -63.5 -216.5t-196.5 -108.5v-4q68 -12 124 -40t95.5 -71t61.5 -100.5t22 -128.5q0 -81 -21.5 -143t-59.5 -107.5t-90.5 -76t-113.5 -48.5t-128.5 -25.5t-136.5 -7.5h-285v1430 zM305 123h148q70 0 142 11.5t130.5 42.5t95.5 85t37 139q0 67 -17 113.5t-47.5 77.5t-71.5 49t-88.5 27t-99.5 11.5t-104 2.5h-125v-559zM309 805h158q66 0 129 12.5t111.5 43t78 82t29.5 128.5q0 72 -25.5 117.5t-68.5 72t-99.5 36.5t-117.5 10h-195v-502z" unicode="B"/>
<glyph glyph-name="C" horiz-adv-x="1366" unicode="C" d="M1157 1270q-76 40 -155.5 50.5t-163.5 10.5q-139 0 -247 -46t-182 -128t-112.5 -195t-38.5 -247q0 -136 38 -249.5t111.5 -195t181.5 -127t249 -45.5q36 0 78.5 3t85 10.5t83 19.5t72.5 29l8 -123q-33 -17 -74 -29t-85 -19.5t-87.5 -10.5t-80.5 -3q-169 0 -302.5 53.5 t-226.5 151t-142.5 233.5t-49.5 302q0 165 50 301t143.5 233.5t227 151t300.5 53.5q36 0 79.5 -2t88 -7.5t86 -16t73.5 -27.5z"/>
<glyph glyph-name="D" horiz-adv-x="1366" unicode="D" d="M305 123h145q107 0 205 19.5t178 65t139.5 120.5t90.5 186q14 51 21.5 104.5t7.5 106.5q0 59 -8 123t-27.5 125.5t-51.5 115.5t-81 93q-43 34 -91.5 57.5t-100.5 38.5t-106 22t-108 7h-213v-1184zM164 1430h354q173 0 306.5 -45t224 -134t137.5 -221.5t47 -306.5 q0 -80 -11.5 -158t-38.5 -150.5t-71.5 -136t-110.5 -112.5q-63 -47 -133.5 -78.5t-145.5 -51t-153 -28t-155 -8.5h-250v1430z"/>
<glyph glyph-name="E" horiz-adv-x="1024" unicode="E" d="M176 1430h701v-123h-560v-510h531v-123h-531v-551h584v-123h-725v1430z"/>
<glyph glyph-name="F" horiz-adv-x="909" unicode="F" d="M158 1430h680v-123h-539v-510h514v-123h-514v-674h-141v1430z"/>
<glyph glyph-name="G" horiz-adv-x="1479" unicode="G" d="M1155 651h-332v123h473v-711q-209 -88 -436 -88q-170 0 -305 52.5t-229.5 149.5t-144.5 233.5t-50 304.5q0 164 50 300t144 233.5t227 151.5t300 54q47 0 96.5 -3t99 -10.5t97.5 -20.5t90 -34l-16 -131q-46 25 -90 40t-88.5 23t-91 10.5t-97.5 2.5q-139 0 -247 -46 t-182 -128t-112.5 -195t-38.5 -247q0 -136 38 -249.5t111.5 -195t181.5 -127t249 -45.5q30 0 71.5 2.5t84.5 8.5t82 16t65 25v501z"/>
<glyph glyph-name="H" horiz-adv-x="1366" unicode="H" d="M180 1430h142v-633h722v633h142v-1430h-142v674h-722v-674h-142v1430z"/>
<glyph glyph-name="I" horiz-adv-x="455" unicode="I" d="M158 1430h141v-1430h-141v1430z"/>
<glyph glyph-name="J" horiz-adv-x="682" unicode="J" d="M512 369q0 -81 -19 -153t-59.5 -125.5t-104.5 -84.5t-153 -31q-38 0 -75 6t-72 19v125q63 -27 133 -27q60 0 100.5 22t64.5 59t34 85t10 101v1065h141v-1061z"/>
<glyph glyph-name="K" horiz-adv-x="1251" unicode="K" d="M195 1430h141v-642l643 642h184l-692 -674l752 -756h-195l-692 715v-715h-141v1430z"/>
<glyph glyph-name="L" horiz-adv-x="909" unicode="L" d="M164 1430h141v-1307h574v-123h-715v1430z"/>
<glyph glyph-name="M" horiz-adv-x="1821" unicode="M" d="M176 1430h219l523 -1258l524 1258h203v-1430h-142v1288h-4l-520 -1288h-121l-536 1288h-5v-1288h-141v1430z"/>
<glyph glyph-name="N" horiz-adv-x="1366" unicode="N" d="M158 1430h178l727 -1258h4v1258h141v-1430h-190l-715 1233h-4v-1233h-141v1430z"/>
<glyph glyph-name="O" horiz-adv-x="1479" unicode="O" d="M739 -25q-165 0 -283.5 60.5t-195 163t-113 238t-36.5 284.5q0 139 36 267.5t117 242.5q42 58 95 100.5t113.5 69.5t128 40t138.5 13q159 0 277 -57.5t196.5 -156.5t117 -230t38.5 -278q0 -152 -34.5 -289.5t-110.5 -241.5t-195.5 -165t-288.5 -61zM739 1331 q-115 0 -210 -47.5t-158 -144.5q-61 -95 -90 -203.5t-29 -220.5q0 -115 28 -219t91 -201q65 -101 156.5 -149t211.5 -48q119 0 213 48t158 149q62 97 89.5 201t27.5 219q0 112 -28 220.5t-89 203.5q-63 97 -159.5 144.5t-211.5 47.5z"/>
<glyph glyph-name="P" horiz-adv-x="1024" unicode="P" d="M176 1430h352q100 0 182 -24t140 -73.5t89.5 -126t31.5 -182.5q0 -101 -36 -177t-98 -127t-145 -76.5t-178 -25.5h-197v-618h-141v1430zM317 741h99q39 0 77.5 3t77.5 8q64 8 112.5 26t80.5 50t48.5 80t16.5 116q0 137 -72.5 210t-209.5 73h-230v-566z"/>
<glyph glyph-name="Q" horiz-adv-x="1479" unicode="Q" d="M1110 -266l-254 252q-61 -11 -117 -11q-165 0 -283.5 60.5t-195 163t-113 238t-36.5 284.5q0 138 36 267.5t117 242.5q42 58 95 100.5t114 69.5t128 40t138 13q159 0 277 -57.5t196.5 -156.5t117 -230t38.5 -278q0 -111 -18 -216.5t-60.5 -198t-114 -168t-178.5 -124.5 l301 -291h-188zM739 1331q-115 0 -210 -47.5t-158 -144.5q-61 -95 -90 -203.5t-29 -220.5q0 -115 28 -219t91 -201q65 -101 156.5 -149t211.5 -48q119 0 213 48t158 149q62 97 89.5 201t27.5 219q0 112 -28 220.5t-89 203.5q-63 97 -159.5 144.5t-211.5 47.5z"/>
<glyph glyph-name="R" d="M322 797h156q62 0 124.5 13.5t112.5 44.5t81 81t31 123q0 90 -29 140t-78.5 74t-115 29t-137.5 5h-145v-510zM180 1430h382q91 0 166 -22t128.5 -67.5t83 -115.5t29.5 -166q0 -70 -25 -126.5t-68.5 -98.5t-101.5 -68.5t-123 -36.5v-4q45 -6 73 -19.5t47.5 -35t33.5 -51 t31 -66.5l243 -553h-155l-207 483q-14 32 -30.5 64t-39 58.5t-52 44.5t-67.5 22q-13 2 -26.5 2h-27.5h-152v-674h-142v1430z" unicode="R"/>
<glyph glyph-name="S" horiz-adv-x="1024" unicode="S" d="M137 182q69 -48 151 -66t165 -18q70 0 128.5 18t101.5 55t67 91.5t24 128.5q0 60 -34.5 107t-84.5 84t-107 66.5t-102 53.5q-31 17 -60 36l-58 38q-43 28 -81 58.5t-66.5 66.5t-45 80t-16.5 100q0 94 39 164.5t102.5 116.5t144.5 69t166 23q73 0 142.5 -10.5t138.5 -36.5 l-23 -129q-60 30 -126.5 41.5t-133.5 11.5q-59 0 -114.5 -13t-99 -42.5t-69.5 -76.5t-26 -114q0 -45 22 -82t59.5 -69.5t86 -61.5t102 -57.5t108 -59t103 -66t87 -77t61.5 -92.5q14 -32 20 -69t6 -72q0 -93 -35 -174.5t-114 -134.5q-72 -48 -152.5 -71.5t-167.5 -23.5 q-38 0 -80.5 3.5t-85 11t-83 19t-74.5 28.5z"/>
<glyph glyph-name="T" horiz-adv-x="1024" unicode="T" d="M442 1307h-422v123h986v-123h-422v-1307h-142v1307z"/>
<glyph glyph-name="U" horiz-adv-x="1366" unicode="U" d="M1202 500q0 -91 -19.5 -171t-61.5 -144.5t-107.5 -112t-157.5 -72.5q-42 -11 -84.5 -18t-87.5 -7q-43 0 -83.5 7t-82.5 18q-91 25 -157.5 72t-109.5 111.5t-64 145t-21 171.5v930h141v-930q0 -88 24.5 -161.5t72.5 -127t118 -83.5t162 -30q93 0 163.5 29.5t118 82.5 t71.5 127t24 163v930h141v-930z"/>
<glyph glyph-name="V" horiz-adv-x="1251" unicode="V" d="M696 0h-151l-533 1430h150l461 -1289l477 1289h139z"/>
<glyph glyph-name="W" horiz-adv-x="1933" unicode="W" d="M1501 0h-168l-362 1270h-4l-369 -1270h-170l-410 1430h146l352 -1270h4l367 1270h170l360 -1270h4l359 1270h135z"/>
<glyph glyph-name="X" horiz-adv-x="1251" unicode="X" d="M547 752l-479 678h165l402 -578l405 578h158l-481 -678l520 -752h-172l-436 651l-453 -651h-162z"/>
<glyph glyph-name="Y" horiz-adv-x="1251" unicode="Y" d="M555 606l-530 824h163l437 -699l448 699h154l-531 -824v-606h-141v606z"/>
<glyph glyph-name="Z" horiz-adv-x="1024" unicode="Z" d="M43 123l745 1184h-727v123h877v-123l-741 -1184h766v-123h-920v123z"/>
<glyph glyph-name="bracketleft" horiz-adv-x="569" unicode="[" d="M141 1548h332v-98h-203v-1638h203v-99h-332v1835z"/>
<glyph glyph-name="backslash" horiz-adv-x="569" unicode="\" d="M633 -25h-141l-555 1479h141z"/>
<glyph glyph-name="bracketright" horiz-adv-x="569" unicode="]" d="M428 -287h-332v99h203v1638h-203v98h332v-1835z"/>
<glyph glyph-name="asciicircum" horiz-adv-x="1229" unicode="^" d="M549 1430h131l446 -887h-145l-367 745l-366 -745h-146z"/>
<glyph glyph-name="underscore" horiz-adv-x="1024" unicode="_" d="M1024 -154v-102h-1024v102h1024z"/>
<glyph glyph-name="grave" horiz-adv-x="455" unicode="`" d="M344 1171h-94l-258 295h162z"/>
<glyph glyph-name="a" horiz-adv-x="1024" unicode="a" d="M750 526h-41q-47 0 -101.5 -2t-108.5 -9.5t-103.5 -23.5t-88 -44t-61.5 -70t-23 -103q0 -48 17 -83.5t46.5 -59t69 -34.5t84.5 -11q64 0 118 18t94 52.5t64 85t29 116.5q2 26 3.5 52.5t1.5 52.5v63zM762 168h-4q-23 -45 -58.5 -81t-80 -61t-94 -38t-99.5 -13 q-35 0 -75.5 6.5t-79.5 20t-73 35t-55 51.5q-12 17 -23 38t-19.5 44t-13.5 46t-5 44q0 60 12.5 114.5t50.5 102.5q47 58 114.5 90.5t144 48t156 18.5t150.5 3h40v66q0 129 -59 192t-189 63q-80 0 -154.5 -22t-142.5 -64v125q74 34 154 53t161 19q93 0 161 -25.5t112 -74 t65 -119.5t21 -161v-470q0 -55 1.5 -109.5t8.5 -109.5h-127v168z"/>
<glyph glyph-name="b" d="M150 1536h129v-668h4q10 29 31 56.5t47 51t56 42t58 29.5q32 13 65.5 17.5t67.5 4.5q124 0 207 -45t132.5 -120.5t70 -174.5t20.5 -207q0 -102 -23 -200.5t-74.5 -175.5t-133.5 -124t-199 -47q-112 0 -192.5 45.5t-132.5 145.5h-4v-166h-129v1536zM897 522q0 38 -2 78 t-8 78q-6 37 -19.5 71.5t-31.5 67.5q-42 75 -102.5 108t-145.5 33q-59 0 -104.5 -18.5t-79.5 -51t-58 -75t-39 -91t-21.5 -100t-6.5 -100.5q0 -71 16.5 -148t53 -141t95.5 -105.5t144 -41.5q64 0 115 22.5t88.5 61.5t61.5 91t34 112q6 37 8 74.5t2 74.5z" unicode="b"/>
<glyph glyph-name="c" horiz-adv-x="909" unicode="c" d="M842 905q-52 24 -109 38.5t-115 14.5q-98 0 -171.5 -33.5t-122.5 -92.5t-74 -138.5t-25 -171.5q0 -84 25 -162.5t73.5 -139.5t119 -97.5t161.5 -36.5q61 0 120 12t116 35l12 -121q-63 -19 -127 -28t-130 -9q-57 0 -111 8.5t-103 28t-92.5 51.5t-79.5 78q-66 85 -95.5 180 t-29.5 201q0 117 35.5 217t102 173.5t162 115t216.5 41.5q27 0 61 -2t68 -6.5t66.5 -12.5t56.5 -20z"/>
<glyph glyph-name="d" d="M989 0h-129v166h-4q-52 -100 -133.5 -145.5t-192.5 -45.5q-79 0 -141.5 22t-110 61t-81.5 91.5t-55.5 114.5t-31.5 129.5t-10 135.5q0 106 22 204t72 172.5t132.5 119t203.5 44.5q66 0 125 -18t109 -62q12 -11 26.5 -25t27.5 -29.5t23.5 -32.5t14.5 -34h4v668h129v-1536z M242 522q0 -35 3.5 -73.5t11 -77t19.5 -75.5t29 -67q38 -68 103.5 -105.5t142.5 -37.5q56 0 101 18.5t79 50.5t58.5 74.5t40 90.5t23 98t7.5 98q0 74 -14.5 152t-50 142.5t-95 106t-149.5 41.5q-92 0 -151.5 -39.5t-94.5 -102.5t-49 -140.5t-14 -153.5z" unicode="d"/>
<glyph glyph-name="e" horiz-adv-x="1024" unicode="e" d="M862 33q-72 -27 -148.5 -42.5t-154.5 -15.5q-126 0 -215.5 41t-147.5 113t-85 171t-27 216q0 67 11 134.5t34.5 129t59 114.5t84.5 92t111.5 61t139.5 22q114 0 193.5 -43t129 -115t71.5 -165.5t22 -194.5v-66h-715q0 -80 21.5 -152t64 -127t107 -87.5t151.5 -32.5 q32 0 71.5 6.5t79.5 17t77.5 24.5t64.5 30v-131zM799 596q0 64 -13 129t-44 116.5t-82.5 84t-127.5 32.5q-71 0 -128 -32t-97 -83.5t-61 -116.5t-21 -130h574z"/>
<glyph glyph-name="f" horiz-adv-x="682" unicode="f" d="M250 934h-211v110h211q0 61 1.5 120t6.5 120q5 64 21.5 115.5t48.5 87.5t80.5 55t117.5 19q30 0 62.5 -3.5t58.5 -17.5l-8 -113q-23 12 -49.5 17.5t-52.5 5.5q-55 0 -86.5 -23t-47.5 -59.5t-20 -81.5t-4 -89v-153h235v-110h-235v-934h-129v934z"/>
<glyph glyph-name="g" d="M551 958q-62 0 -109 -18.5t-81.5 -50.5t-57.5 -75.5t-36.5 -92.5t-19 -102t-5.5 -104q0 -71 16 -142.5t51.5 -130t93 -95t140.5 -36.5q77 0 143.5 33t104.5 102q35 63 52 133.5t17 142.5q0 81 -11.5 159t-45 139.5t-94 99.5t-158.5 38zM989 86q0 -99 -24 -195.5 t-84 -177.5q-32 -44 -76 -73.5t-94.5 -47.5t-104.5 -26t-106 -8q-82 0 -160 16.5t-156 38.5l11 129q69 -38 149 -56t158 -18q86 0 146 21t100 58t62.5 88t34 110.5t14.5 125.5t3 134h-4q-49 -93 -124.5 -149t-183.5 -56q-176 0 -279.5 88.5t-145.5 255.5q-12 47 -18.5 92 t-6.5 93q0 106 22 204t72 172.5t132.5 119t203.5 44.5q57 0 102 -5t82.5 -20t71.5 -43t70 -75h4v118h129v-958z" unicode="g"/>
<glyph glyph-name="h" d="M162 1536h129v-668h4q48 97 133 149t193 52q40 0 81 -5.5t78.5 -20t69.5 -38t55 -59.5q21 -34 35 -72.5t22 -79t11.5 -81.5t3.5 -80v-633h-129v623q0 68 -8 129t-34.5 106.5t-75.5 72.5t-130 27q-83 0 -141.5 -34.5t-95.5 -90t-54.5 -126t-17.5 -142.5v-565h-129v1536z " unicode="h"/>
<glyph glyph-name="i" horiz-adv-x="455" unicode="i" d="M162 1044h129v-1044h-129v1044zM291 1323h-129v172h129v-172z"/>
<glyph glyph-name="j" horiz-adv-x="455" unicode="j" d="M-57 -319q18 -5 37.5 -9t39.5 -4q47 0 75 15t43 41t19.5 60.5t4.5 74.5v1185h129v-1199q0 -62 -11 -114.5t-38 -90.5t-72.5 -60t-114.5 -22q-27 0 -56.5 1.5t-55.5 8.5v113zM291 1323h-129v172h129v-172z"/>
<glyph glyph-name="k" horiz-adv-x="1024" unicode="k" d="M162 1536h129v-920l467 428h166l-510 -462l571 -582h-178l-516 537v-537h-129v1536z"/>
<glyph glyph-name="l" horiz-adv-x="455" unicode="l" d="M162 1536h129v-1536h-129v1536z"/>
<glyph glyph-name="m" horiz-adv-x="1706" unicode="m" d="M1423 0v694q0 26 -1.5 53.5t-6.5 53.5q-5 23 -15 43t-24 39q-33 46 -76 60.5t-98 14.5q-57 0 -105.5 -24t-86.5 -66q-26 -28 -43 -63t-27 -73t-14 -77.5t-4 -76.5v-578h-129v694q0 58 -10.5 106.5t-36 83.5t-68.5 54.5t-107 19.5q-57 0 -105.5 -24t-86.5 -66 q-26 -28 -43 -63t-27 -73t-14 -77.5t-4 -76.5v-578h-129v799q0 62 -2 122.5t-6 122.5h125v-176l4 -2q50 105 130 154t195 49q113 0 184.5 -54.5t92.5 -166.5h4q22 52 55.5 93t77 69.5t94.5 43.5t107 15q80 0 141.5 -25.5t103 -72t63 -111t21.5 -141.5v-719h-129z"/>
<glyph glyph-name="n" d="M162 799q0 62 -2 122.5t-6 122.5h125v-186h4q27 57 60 97t74 65.5t91 37t113 11.5q95 0 162.5 -29.5t110.5 -82.5t63 -126.5t20 -162.5v-668h-129v635q0 64 -10.5 123t-38.5 103t-76 70.5t-123 26.5q-84 0 -143 -31.5t-95.5 -84t-53.5 -121t-17 -143.5v-578h-129v799z " unicode="n"/>
<glyph glyph-name="o" d="M82 522q0 113 31 212.5t92 174t152 117.5t212 43q123 0 214.5 -42t152.5 -116t91 -174t30 -215q0 -114 -30.5 -214t-91.5 -174t-152.5 -116.5t-213.5 -42.5q-109 0 -205.5 39.5t-162.5 128.5q-63 85 -91 180t-28 199zM223 522q0 -80 20 -158.5t62 -140t107.5 -99.5 t156.5 -38q93 0 158.5 37.5t107 99t61 140t19.5 159.5q0 83 -19 161.5t-60 139.5t-107 98t-160 37q-93 0 -158.5 -37.5t-107 -99t-61 -140t-19.5 -159.5z" unicode="o"/>
<glyph glyph-name="p" d="M150 1044h129l-9 -190h4q9 15 18 30.5t19 30.5q53 80 128 117t169 37q124 0 207 -45t132.5 -120.5t70 -174.5t20.5 -207q0 -102 -23 -200.5t-74.5 -175.5t-133.5 -124t-199 -47q-114 0 -196.5 48.5t-128.5 154.5h-4v-608h-129v1474zM897 522q0 38 -2 78t-8 78 q-6 37 -19.5 71.5t-31.5 67.5q-41 75 -102.5 108t-145.5 33q-59 0 -105.5 -19.5t-80.5 -53t-57.5 -78t-38 -94.5t-21 -102t-6.5 -101q0 -46 8 -95.5t24 -96.5t41 -89t59 -74t78 -50.5t99 -18.5q64 0 115 22.5t88.5 61.5t61.5 91t34 112q6 37 8 74.5t2 74.5z" unicode="p"/>
<glyph glyph-name="q" d="M989 -430h-129v608h-4q-47 -106 -129.5 -154.5t-196.5 -48.5q-79 0 -141.5 22t-110 61t-81.5 92t-55.5 114.5t-31.5 129t-10 135.5q0 106 22 204t72 172.5t132.5 119t203.5 44.5q34 0 73 -4.5t71 -17.5q28 -12 55 -30t51 -40.5t43.5 -49t32.5 -53.5h4v170h129v-1474z M242 522q0 -35 3.5 -73.5t11 -77t19.5 -75.5t29 -67q38 -68 103.5 -105.5t142.5 -37.5q56 0 101 18.5t79 50.5t58.5 74.5t40 90.5t23 98t7.5 98q0 74 -14.5 152t-50 142.5t-95 106t-149.5 41.5q-92 0 -151.5 -39.5t-94.5 -102.5t-49 -140.5t-14 -153.5z" unicode="q"/>
<glyph glyph-name="r" horiz-adv-x="682" unicode="r" d="M162 811q0 59 -1.5 117t-6.5 116h129v-200h4q17 42 42.5 82.5t59 72t75 51t91.5 19.5q46 0 90 -12v-135q-47 12 -94 12q-53 0 -92.5 -19.5t-68.5 -52t-48 -75t-30.5 -89t-16 -94t-4.5 -88.5v-516h-129v811z"/>
<glyph glyph-name="s" horiz-adv-x="797" unicode="s" d="M82 152q63 -34 132 -50t140 -16q42 0 83.5 11.5t74.5 34.5t53.5 58t20.5 82q0 48 -21.5 83.5t-57 63t-80.5 49.5t-92 44t-92 46t-80.5 55.5t-57 73t-21.5 97.5q0 76 27 130t73.5 88.5t108.5 50.5t131 16q136 0 258 -47l-12 -113q-55 23 -113.5 36t-118.5 13 q-45 0 -86 -7.5t-71.5 -27t-49 -53.5t-18.5 -86q0 -30 17.5 -53.5t43 -42t54 -33t51.5 -24.5l92 -45q50 -24 94 -50.5t84 -64.5q42 -40 60 -91t18 -108q0 -76 -31.5 -132t-83 -92.5t-117 -54.5t-133.5 -18q-150 0 -292 50z"/>
<glyph glyph-name="t" horiz-adv-x="682" unicode="t" d="M612 934h-237v-676q0 -34 7.5 -65t24 -55t43 -38t64.5 -14q31 0 61 5.5t58 19.5l8 -107q-39 -13 -77.5 -21t-80.5 -8q-85 0 -132.5 29t-71 77.5t-28.5 111.5t-5 131v610h-205v110h205v252l129 45v-297h237v-110z"/>
<glyph glyph-name="u" d="M977 246q0 -62 1.5 -123t6.5 -123h-125v186h-4q-21 -54 -55.5 -93.5t-79 -66t-96.5 -39t-107 -12.5q-93 0 -160.5 29t-111 81.5t-64 125.5t-20.5 160v673h129v-634q0 -62 11.5 -120.5t40 -103.5t76.5 -72.5t120 -27.5q82 0 141 32t96 85t54.5 121.5t17.5 142.5v577h129 v-798z" unicode="u"/>
<glyph glyph-name="v" horiz-adv-x="909" unicode="v" d="M524 0h-151l-355 1044h142l289 -903h4l303 903h135z"/>
<glyph glyph-name="w" horiz-adv-x="1593" unicode="w" d="M1235 0h-156l-284 903h-4l-285 -903h-156l-336 1044h142l274 -903h4l291 903h156l276 -903h4l289 903h129z"/>
<glyph glyph-name="x" horiz-adv-x="909" unicode="x" d="M383 553l-332 491h160l248 -389l252 389h147l-323 -491l358 -553h-160l-274 451l-293 -451h-150z"/>
<glyph glyph-name="y" horiz-adv-x="909" unicode="y" d="M453 174h2l301 870h135l-418 -1200q-16 -47 -38 -97.5t-53.5 -92.5t-75 -69t-101.5 -27q-35 0 -70 4t-69 12l12 111q21 -8 47 -12.5t49 -4.5q37 0 65.5 16t50 43t36.5 60.5t26.5 69.5t20 70t16.5 61l-371 1056h142z"/>
<glyph glyph-name="z" horiz-adv-x="909" unicode="z" d="M66 109l628 825h-604v110h754v-110l-629 -823h629v-111h-778v109z"/>
<glyph glyph-name="braceleft" horiz-adv-x="569" unicode="{" d="M559 1450h-102q-30 0 -48 -21.5t-27.5 -51.5t-12 -62.5t-2.5 -54.5v-338q0 -56 -15 -113.5t-53 -99.5q-9 -11 -21.5 -23t-26 -23t-28 -19t-28.5 -11v-4q14 -1 29 -8.5t28.5 -18t25.5 -23t21 -22.5q40 -48 54 -104t14 -117v-332q0 -22 3 -54.5t12.5 -63t27 -52.5t47.5 -22 h102v-99h-115q-44 0 -80 18t-65 50q-33 38 -47 85t-14 97v348q0 40 -6 87t-23 87.5t-48.5 68t-82.5 28.5v98q51 1 82 29.5t48.5 70.5t23.5 89.5t6 86.5v344q0 48 12.5 92.5t38.5 79t65 55.5t92 21h113v-98z"/>
<glyph glyph-name="bar" horiz-adv-x="455" unicode="|" d="M299 1536v-2048h-141v2048h141z"/>
<glyph glyph-name="braceright" horiz-adv-x="569" unicode="}" d="M10 -188h103q30 0 47.5 22t27 52t12.5 62t3 54v338q0 27 4 56t12 57.5t21.5 55t31.5 46.5q9 10 21 21.5t25.5 22.5t28 19t28.5 11v4q-45 16 -77.5 47.5t-53.5 71t-31 85t-10 89.5v331q0 22 -2.5 55t-12 63.5t-27.5 52.5t-48 22h-103v98h115q54 0 93.5 -21t64.5 -55.5 t37 -79.5t12 -94v-348q0 -39 6.5 -85.5t24 -87.5t48.5 -68.5t81 -28.5v-98q-51 -1 -82 -29.5t-48.5 -70.5t-23.5 -90t-6 -87v-344q0 -48 -13 -93t-39 -79.5t-65 -55t-92 -20.5h-113v99z"/>
<glyph glyph-name="asciitilde" horiz-adv-x="1229" unicode="~" d="M1087 559q-18 -38 -43.5 -71.5t-58.5 -59t-72 -40.5t-82 -15q-39 0 -77 11t-75 27.5t-73.5 36t-72 36t-70.5 27.5t-68 11q-32 0 -58.5 -14.5t-48.5 -36t-40 -48t-33 -50.5l-74 104q19 39 44.5 73t57 59.5t70 40t84.5 14.5q58 0 118.5 -23.5t117.5 -51.5t108.5 -51.5 t92.5 -23.5q30 0 57 14.5t50 36.5t41 48.5t32 50.5z"/>
<glyph glyph-name="exclamdown" horiz-adv-x="797" unicode="¡" d="M340 698h117l24 -1083h-166zM481 872h-166v172h166v-172z"/>
<glyph glyph-name="cent" d="M752 956q-10 2 -15 2q-98 0 -171.5 -33.5t-122.5 -92.5t-74 -138.5t-25 -171.5q0 -102 34 -192.5t111 -159.5zM930 1204l-51 -151q23 -5 46.5 -11t45.5 -14l-10 -123q-28 14 -57.5 23.5t-59.5 15.5l-275 -823q73 -35 154 -35q61 0 119.5 12t115.5 35l13 -121 q-63 -20 -127.5 -28.5t-130.5 -8.5q-48 0 -93 6.5t-90 22.5l-63 -190h-96l75 225q-65 38 -111 91t-75 116t-43 133.5t-14 142.5q0 117 35.5 217t102 173.5t162 115t216.5 41.5q17 0 34.5 -1t34.5 -3l46 139h96z" unicode="¢"/>
<glyph glyph-name="sterling" d="M137 123h211v588h-186v110h186q0 51 1 99.5t5 99.5q3 47 15.5 93.5t29.5 90.5q27 67 66 113t89.5 74t111.5 40.5t131 12.5q23 0 54 -2t63.5 -7t62 -13t49.5 -21l-20 -127q-20 14 -46 23t-54.5 14.5t-56.5 7.5t-52 2q-96 0 -156.5 -33.5t-94 -90.5t-45.5 -131.5 t-12 -156.5v-88h340v-110h-340v-588h504v-123h-856v123z" unicode="£"/>
<glyph glyph-name="currency" d="M172 401q-111 138 -111 314q0 87 27 165t84 144l-117 113l88 92l117 -115q67 52 145.5 80.5t163.5 28.5q86 0 165.5 -27.5t146.5 -81.5l110 115l92 -92l-110 -113q104 -136 104 -309q0 -175 -104 -314l110 -112l-92 -88l-110 114q-67 -57 -145.5 -82.5t-166.5 -25.5 q-87 0 -164.5 26t-144.5 82l-117 -114l-88 88zM565 330q82 0 150.5 30t117.5 81.5t76 122t27 151.5q0 79 -26.5 149.5t-75 122.5t-116 82.5t-149.5 30.5q-36 0 -72 -9t-70 -24.5t-64 -37.5t-54 -48q-51 -56 -78.5 -123t-27.5 -143q0 -79 26 -149t73 -122.5t114 -83 t149 -30.5z" unicode="¤"/>
<glyph glyph-name="yen" d="M500 358h-295v99h295v153l-6 13h-289v98h233l-399 709h156l374 -691l385 691h146l-398 -709h234v-98h-289l-6 -13v-153h295v-99h-295v-358h-141v358z" unicode="¥"/>
<glyph glyph-name="brokenbar" horiz-adv-x="455" unicode="¦" d="M299 1382v-716h-141v716h141zM299 358v-716h-141v716h141z"/>
<glyph glyph-name="section" d="M848 1290q-23 14 -54 24t-64 16.5t-66 9.5t-60 3q-33 0 -66 -5t-64 -15.5t-58.5 -28.5t-48.5 -43q-17 -20 -24 -38t-7 -44q0 -50 26.5 -86t69.5 -64t98 -51t113 -46.5t113 -51t98 -64t69.5 -86t26.5 -116.5q0 -45 -12 -83t-33 -72t-49 -64t-59 -59q35 -17 64 -42.5 t50 -56.5t33 -67.5t12 -75.5q0 -66 -22.5 -118t-62 -91t-92.5 -65t-113 -39q-31 -7 -62 -12t-63 -5q-89 0 -175.5 14.5t-170.5 43.5l14 120q79 -34 162.5 -50.5t169.5 -16.5q48 0 97 13t88.5 39.5t64 67t24.5 95.5q0 22 -5.5 44t-18.5 40q-18 25 -55 48t-79.5 42.5 t-84.5 34.5t-72 26q-60 21 -113.5 50t-103.5 67q-101 77 -101 203q0 48 16 86.5t41.5 72t58 63t64.5 58.5q-33 21 -63 44t-53 50.5t-37 61t-14 76.5q0 74 31 137.5t96 101.5q56 32 117 50t126 18q75 0 150.5 -10t146.5 -35zM817 580q0 60 -26.5 101t-77.5 69 q-17 10 -35.5 17t-36.5 15l-178 84q-29 -17 -54.5 -41t-44.5 -52.5t-29.5 -61.5t-10.5 -68q0 -30 11.5 -55t30 -45.5t42.5 -36.5t49 -27l239 -104q24 24 46 45t38.5 44t26.5 50.5t10 65.5z" unicode="§"/>
<glyph glyph-name="dieresis" horiz-adv-x="455" unicode="¨" d="M326 1409h153v-172h-153v172zM-25 1409h154v-172h-154v172z"/>
<glyph glyph-name="copyright" horiz-adv-x="1638" unicode="©" d="M221 715q0 -129 44 -243.5t123 -200t189.5 -135.5t243.5 -50t243 50t188.5 135.5t121.5 200t43 243.5t-43 243.5t-121.5 200t-188.5 135t-243 49.5q-134 0 -244 -49.5t-189.5 -135t-123 -199.5t-43.5 -244zM1210 573q-17 -71 -47.5 -129.5t-75.5 -100.5t-105 -65.5 t-136 -23.5q-99 0 -180.5 35.5t-140 98t-90.5 146.5t-32 181q0 100 29.5 184.5t86 146.5t137.5 97t184 35q75 0 137.5 -20.5t110 -59.5t78 -97t42.5 -133h-123q-19 96 -82.5 147.5t-160.5 51.5q-77 0 -133 -28.5t-92.5 -76.5t-54 -111.5t-17.5 -133.5q0 -66 20 -129.5 t58 -113t94.5 -79.5t128.5 -30q98 0 160 56.5t79 151.5h125zM80 715q0 102 26.5 196.5t74 176.5t115 149.5t149.5 115.5t176.5 74.5t197.5 26.5t198.5 -26t177.5 -73.5t149 -114.5t115 -149.5t74 -177.5t26 -198q0 -102 -26.5 -196.5t-74.5 -177t-116 -150t-150 -115.5 t-176.5 -74.5t-196.5 -26.5q-101 0 -195 27t-176.5 75.5t-150 116t-116 150t-75 176.5t-26.5 195z"/>
<glyph glyph-name="ordfeminine" horiz-adv-x="666" unicode="ª" d="M487 1122h-56.5t-70.5 -3.5t-74 -11t-66 -22t-47.5 -37.5t-18.5 -57q0 -33 13.5 -54t35 -33.5t48.5 -17.5t54 -5q25 0 48.5 3t44.5 11.5t39 23.5t30 39q8 15 14 34t6 36v94zM496 909h-4q-12 -29 -35 -50.5t-51.5 -35.5t-59.5 -21t-61 -7q-45 0 -87.5 8.5t-75.5 29.5 t-53 56t-20 88q0 59 20.5 99t55 65.5t79.5 39t93.5 19.5t97.5 7t92 1v37t-2 37q-2 14 -6 22t-12 19q-23 32 -55 38.5t-70 6.5q-106 0 -201 -49v94q51 20 105 30.5t108 10.5q118 0 178 -57.5t60 -175.5v-277q0 -34 1 -67t5 -66h-102v98z"/>
<glyph glyph-name="guillemotleft" d="M322 551l272 -420h-121l-287 420l287 420h121zM680 551l272 -420h-121l-286 420l286 420h121z" unicode="«"/>
<glyph glyph-name="logicalnot" horiz-adv-x="1229" unicode="¬" d="M94 795h1039v-562h-142v420h-897v142z"/>
<glyph glyph-name="registered" horiz-adv-x="1638" unicode="®" d="M80 715q0 102 26.5 196.5t74 176.5t115 149.5t149.5 115.5t176.5 74.5t197.5 26.5t198.5 -26t177.5 -73.5t149 -114.5t115 -149.5t74 -177.5t26 -198q0 -102 -26.5 -196.5t-74.5 -177t-116 -150t-150 -115.5t-176.5 -74.5t-196.5 -26.5q-101 0 -195 27t-176.5 75.5 t-150 116t-116 150t-75 176.5t-26.5 195zM221 715q0 -129 44 -243.5t123 -200t189.5 -135.5t243.5 -50t243 50t188.5 135.5t121.5 200t43 243.5t-43 243.5t-121.5 200t-188.5 135t-243 49.5q-134 0 -244 -49.5t-189.5 -135t-123 -199.5t-43.5 -244zM537 1149h331 q63 0 117 -12t94 -40.5t63 -75t23 -116.5q0 -51 -15 -94.5t-43.5 -76t-70 -50.5t-94.5 -18l246 -383h-150l-241 383h-119v-383h-141v866zM678 776h176q36 0 67.5 5.5t54 20.5t35.5 41.5t13 67.5q0 40 -15.5 65t-40.5 38.5t-57 18.5t-65 5h-168v-262z"/>
<glyph glyph-name="macron" horiz-adv-x="455" unicode="¯" d="M-23 1368h500v-111h-500v111z"/>
<glyph glyph-name="degree" horiz-adv-x="819" unicode="°" d="M410 1346q-47 0 -87.5 -14t-70 -40.5t-46 -65t-16.5 -87.5q0 -43 19 -81t49.5 -66t70 -44t81.5 -16q43 0 82.5 15.5t70 43.5t48.5 66t18 82q0 49 -16.5 88t-45.5 65t-69 40t-88 14zM410 1444q67 0 126 -21.5t102.5 -61.5t69 -96.5t25.5 -125.5q0 -68 -25.5 -124.5 t-69.5 -96.5t-103 -62t-125 -22q-65 0 -123.5 22.5t-103 63t-71 96.5t-26.5 123q0 68 26 124t70.5 96.5t103 62.5t124.5 22z"/>
<glyph glyph-name="plusminus" horiz-adv-x="1229" unicode="±" d="M94 692h449v346h141v-346h449v-141h-449v-346h-141v346h-449v141zM94 141h1039v-141h-1039v141z"/>
<glyph glyph-name="twosuperior" horiz-adv-x="739" unicode="²" d="M92 666l217 194q31 28 69 68.5t70 86t54 93.5t22 92q0 73 -45 109.5t-114 36.5q-58 0 -115.5 -17t-108.5 -45l-16 102q56 27 116.5 42.5t123.5 15.5q60 0 110.5 -13t87 -41.5t57.5 -73.5t21 -110q0 -63 -21 -117t-59 -102q-70 -87 -150.5 -160t-164.5 -147h403v-98h-557 v84z"/>
<glyph glyph-name="threesuperior" horiz-adv-x="739" unicode="³" d="M203 1073q26 0 60.5 0.5t71.5 4.5t73.5 13t65 25t46 41.5t17.5 63.5q0 40 -19 64.5t-48 38t-64 18t-66 4.5q-57 0 -112.5 -12t-106.5 -36l-8 107q27 12 57.5 19.5t62 12t63 6t60.5 1.5q52 0 105 -10.5t95.5 -35t69.5 -66t27 -103.5q0 -43 -16 -76.5t-43 -58.5t-62 -41.5 t-73 -24.5v-4q97 -6 147.5 -61t50.5 -152q0 -69 -34 -115.5t-86 -75t-114 -41t-119 -12.5q-60 0 -118.5 8t-115.5 27l10 107q57 -21 117 -32t121 -11q37 0 77 8.5t72 28t53 50.5t21 76q0 102 -103 127q-40 10 -82.5 14.5t-84.5 4.5h-68v98z"/>
<glyph glyph-name="acute" horiz-adv-x="455" unicode="´" d="M299 1466h162l-258 -295h-94z"/>
<glyph glyph-name="uni00B5" d="M162 1044h129v-634q0 -62 11.5 -120.5t40 -103.5t76.5 -72.5t120 -27.5q82 0 141 32t96 85t54.5 121.5t17.5 142.5v577h129v-798q0 -62 1.5 -123t6.5 -123h-125v186h-4q-21 -54 -55.5 -93.5t-78.5 -66t-96 -39t-108 -12.5q-60 0 -117 15.5t-110 44.5v-465h-129v1474z" unicode="µ"/>
<glyph glyph-name="paragraph" horiz-adv-x="1229" unicode="¶" d="M524 655q-83 1 -159.5 27.5t-136 75.5t-95 119.5t-35.5 158.5q0 109 35.5 184.5t98.5 122t148.5 67t184.5 20.5h492v-1651h-129v1540h-275v-1540h-129v876z"/>
<glyph glyph-name="periodcentered" horiz-adv-x="569" unicode="·" d="M188 637q0 42 28 70t71 28q42 0 69 -28t27 -70t-27 -69t-69 -27t-70.5 27t-28.5 69z"/>
<glyph glyph-name="cedilla" horiz-adv-x="455" unicode="¸" d="M213 0h55l-39 -111q31 7 68 7q31 0 58.5 -8.5t47.5 -25t31.5 -42t11.5 -58.5q0 -44 -22 -71.5t-55.5 -43t-73 -21t-74.5 -5.5q-54 0 -105 15.5t-102 29.5l15 76q38 -23 87.5 -41t94.5 -18q18 0 37 3.5t34.5 12t25 23t9.5 36.5q0 76 -77 76q-22 0 -43.5 -2t-42.5 -6z"/>
<glyph glyph-name="onesuperior" horiz-adv-x="739" unicode="¹" d="M475 582h-117v749l-155 -119l-45 68l211 164h106v-862z"/>
<glyph glyph-name="ordmasculine" horiz-adv-x="739" unicode="º" d="M47 1122q0 76 22 137.5t63.5 104.5t101.5 66.5t137 23.5q79 0 139 -23t100.5 -66t61 -104.5t20.5 -138.5q0 -73 -22.5 -133t-64.5 -103t-101.5 -67t-132.5 -24q-75 0 -135 23.5t-102 66t-64.5 103t-22.5 134.5zM152 1122q0 -50 14.5 -94t42 -76.5t68.5 -51.5t94 -19 q54 0 94.5 18.5t68 51t41 76.5t13.5 95q0 49 -14 93.5t-41.5 78.5t-68 54t-93.5 20q-52 0 -92.5 -20.5t-68.5 -54.5t-43 -78.5t-15 -92.5z"/>
<glyph glyph-name="guillemotright" d="M817 551l-272 420h121l286 -420l-286 -420h-121zM459 551l-273 420h121l287 -420l-287 -420h-121z" unicode="»"/>
<glyph glyph-name="onequarter" horiz-adv-x="1708" unicode="¼" d="M1174 1475h116l-907 -1520h-117zM463 582h-117v749l-156 -119l-45 68l211 164h107v-862zM1331 721h-4l-328 -436h332v436zM883 287l426 575h139v-577h115v-99h-115v-186h-117v186h-448v101z"/>
<glyph glyph-name="onehalf" horiz-adv-x="1708" unicode="½" d="M1147 1475h117l-908 -1520h-116zM438 582h-116v749l-156 -119l-45 68l211 164h106v-862zM1030 84l217 195q31 28 69 68t70 85.5t54 93.5t22 92q0 73 -45 109.5t-114 36.5q-59 0 -116 -16.5t-108 -45.5l-16 103q56 27 116.5 42t123.5 15q60 0 110.5 -12.5t87 -41 t57.5 -73.5t21 -110q0 -63 -21 -117t-59 -102q-70 -88 -150 -161t-165 -147h403v-98h-557v84z"/>
<glyph glyph-name="threequarters" horiz-adv-x="1708" unicode="¾" d="M1331 1475h119l-907 -1520h-119zM1370 721h-4l-328 -436h332v436zM922 287l426 575h139v-577h115v-99h-115v-186h-117v186h-448v101zM242 1073q26 0 61 0.5t72 4.5t72.5 12.5t64 25t46 42t17.5 63.5q0 40 -18.5 64.5t-47.5 38t-63.5 18t-66.5 4.5q-57 0 -112.5 -12 t-106.5 -36l-8 107q54 23 119 31t124 8q52 0 105 -10.5t95.5 -35t69.5 -66t27 -103.5q0 -43 -16 -76.5t-43 -58.5t-62 -41.5t-73 -24.5v-4q97 -6 147.5 -61t50.5 -152q0 -69 -34 -115.5t-86 -75t-114 -41t-119 -12.5q-60 0 -118.5 8t-115.5 27l10 107q57 -21 117 -32 t121 -11q37 0 77 8.5t72 28t53 50.5t21 76q0 102 -103 127q-40 10 -82.5 14.5t-84.5 4.5h-68v98z"/>
<glyph glyph-name="questiondown" horiz-adv-x="1024" unicode="¿" d="M848 -358q-72 -24 -147.5 -38t-151.5 -14q-85 0 -157 24.5t-124.5 71t-82 115t-29.5 156.5q0 62 14 111t37 90.5t53.5 77.5t63.5 72t66 74.5t63 84.5q34 53 43.5 108.5t9.5 111.5v11h129v-12q0 -58 -9.5 -118t-41.5 -117q-26 -45 -57.5 -83t-63.5 -73.5t-61.5 -70.5 t-53 -75t-37.5 -86.5t-14 -105.5q0 -55 20 -100t55 -77t82 -49.5t101 -17.5q74 0 146 17t141 41zM651 872h-166v172h166v-172z"/>
<glyph glyph-name="Agrave" horiz-adv-x="1366" unicode="À" d="M612 1430h160l567 -1430h-147l-154 383h-721l-153 -383h-137zM371 506h620l-309 788zM813 1486h-94l-258 295h162z"/>
<glyph glyph-name="Aacute" horiz-adv-x="1366" unicode="Á" d="M612 1430h160l567 -1430h-147l-154 383h-721l-153 -383h-137zM371 506h620l-309 788zM772 1781h162l-258 -295h-94z"/>
<glyph glyph-name="Acircumflex" horiz-adv-x="1366" unicode="Â" d="M612 1430h160l567 -1430h-147l-154 383h-721l-153 -383h-137zM371 506h620l-309 788zM612 1781h168l191 -295h-94l-181 209l-180 -209h-94z"/>
<glyph glyph-name="Atilde" horiz-adv-x="1366" unicode="Ã" d="M612 1430h160l567 -1430h-147l-154 383h-721l-153 -383h-137zM371 506h620l-309 788zM414 1534q7 31 20 64t32.5 59.5t47.5 43.5t66 17q31 0 63.5 -7t61.5 -18l20 -7.5t24.5 -8.5t24.5 -7t21 -3q35 0 62 17.5t38 51.5h76q-3 -19 -8.5 -39.5t-14 -40.5t-21 -37t-28.5 -28 q-20 -14 -44 -24.5t-49 -10.5q-68 0 -132 27q-20 8 -47 16t-49 8q-39 0 -58 -19.5t-33 -53.5h-73z"/>
<glyph glyph-name="Adieresis" horiz-adv-x="1366" unicode="Ä" d="M612 1430h160l567 -1430h-147l-154 383h-721l-153 -383h-137zM371 506h620l-309 788zM795 1724h153v-172h-153v172zM444 1724h154v-172h-154v172z"/>
<glyph glyph-name="Aring" horiz-adv-x="1366" unicode="Å" d="M612 1430h160l567 -1430h-147l-154 383h-721l-153 -383h-137zM371 506h620l-309 788zM502 1671q0 42 15 77.5t41.5 61.5t62 41t77.5 15t78 -14.5t62.5 -40.5t41.5 -62t15 -78t-15 -77.5t-41.5 -61.5t-62.5 -40.5t-78 -14.5q-41 0 -76.5 15t-62 41t-42 61.5t-15.5 76.5z M575 1671q0 -25 10 -47t27 -38.5t39 -26t47 -9.5t47.5 9t39.5 25.5t26.5 38.5t9.5 48q0 54 -34.5 87.5t-88.5 33.5q-53 0 -88 -34t-35 -87z"/>
<glyph glyph-name="AE" horiz-adv-x="1821" unicode="Æ" d="M977 1319h-4l-504 -813h508v813zM893 1430h780v-123h-555v-510h527v-123h-527v-551h580v-123h-719v383h-586l-237 -383h-156z"/>
<glyph glyph-name="Ccedilla" horiz-adv-x="1366" unicode="Ç" d="M1157 1270q-76 40 -155.5 50.5t-163.5 10.5q-139 0 -247 -46t-182 -128t-112.5 -195t-38.5 -247q0 -136 38 -249.5t111.5 -195t181.5 -127t249 -45.5q36 0 78.5 3t85.5 10.5t83 19.5t72 29l8 -123q-33 -17 -74 -29t-85 -19.5t-87.5 -10.5t-80.5 -3q-8 0 -14.5 0.5 t-14.5 1.5l-31 -88q31 7 68 7q31 0 58.5 -8.5t47.5 -25t31.5 -42t11.5 -58.5q0 -44 -22 -71.5t-55.5 -43t-73 -21t-74.5 -5.5q-54 0 -105 15.5t-102 29.5l15 76q39 -23 87.5 -41t94.5 -18q18 0 37 3.5t34 12t25 23t10 36.5q0 38 -20 57t-58 19q-22 0 -43.5 -2t-42.5 -6 l52 156q-154 15 -273 74.5t-200 155.5t-122.5 223.5t-41.5 279.5q0 165 50 301t143.5 233.5t227 151t300.5 53.5q36 0 79.5 -2t88 -7.5t86 -16t73.5 -27.5z"/>
<glyph glyph-name="Egrave" horiz-adv-x="1024" unicode="È" d="M176 1430h701v-123h-560v-510h531v-123h-531v-551h584v-123h-725v1430zM631 1486h-94l-258 295h162z"/>
<glyph glyph-name="Eacute" horiz-adv-x="1024" unicode="É" d="M176 1430h701v-123h-560v-510h531v-123h-531v-551h584v-123h-725v1430zM590 1781h162l-258 -295h-94z"/>
<glyph glyph-name="Ecircumflex" horiz-adv-x="1024" unicode="Ê" d="M176 1430h701v-123h-560v-510h531v-123h-531v-551h584v-123h-725v1430zM428 1781h168l191 -295h-94l-181 209l-180 -209h-94z"/>
<glyph glyph-name="Edieresis" horiz-adv-x="1024" unicode="Ë" d="M176 1430h701v-123h-560v-510h531v-123h-531v-551h584v-123h-725v1430zM615 1724h153v-172h-153v172zM264 1724h154v-172h-154v172z"/>
<glyph glyph-name="Igrave" horiz-adv-x="455" unicode="Ì" d="M158 1430h141v-1430h-141v1430zM343 1486h-94l-258 295h162z"/>
<glyph glyph-name="Iacute" horiz-adv-x="455" unicode="Í" d="M158 1430h141v-1430h-141v1430zM299 1781h162l-258 -295h-94z"/>
<glyph glyph-name="Icircumflex" horiz-adv-x="455" unicode="Î" d="M158 1430h141v-1430h-141v1430zM140 1781h168l191 -295h-94l-181 209l-180 -209h-94z"/>
<glyph glyph-name="Idieresis" horiz-adv-x="455" unicode="Ï" d="M158 1430h141v-1430h-141v1430zM326 1724h153v-172h-153v172zM-25 1724h154v-172h-154v172z"/>
<glyph glyph-name="Eth" horiz-adv-x="1366" unicode="Ð" d="M164 1430h268q127 0 248 -21t222.5 -73.5t178 -140.5t116.5 -221q18 -62 27 -127.5t9 -129.5q0 -78 -12 -156t-39 -149.5t-71.5 -134t-109.5 -111.5q-63 -47 -134 -78.5t-146 -51t-152.5 -28t-154.5 -8.5h-250v674h-141v123h141v633zM305 797h436v-123h-436v-551h145 q107 0 205 19.5t178 65t139.5 120.5t90.5 186q14 51 21.5 104.5t7.5 106.5q0 64 -8.5 130t-29.5 127.5t-57.5 114.5t-93.5 91q-53 35 -114 58t-125 36.5t-129.5 19t-127.5 5.5h-102v-510z"/>
<glyph glyph-name="Ntilde" horiz-adv-x="1366" unicode="Ñ" d="M158 1430h178l727 -1258h4v1258h141v-1430h-190l-715 1233h-4v-1233h-141v1430zM410 1534q7 31 20 64t32.5 59.5t47.5 43.5t66 17q31 0 63.5 -7t61.5 -18l20 -7.5t24.5 -8.5t24.5 -7t21 -3q35 0 62 17.5t38 51.5h76q-3 -19 -8.5 -39.5t-14 -40.5t-21 -37t-28.5 -28 q-20 -14 -44 -24.5t-49 -10.5q-68 0 -132 27q-20 8 -47 16t-49 8q-39 0 -58 -19.5t-33 -53.5h-73z"/>
<glyph glyph-name="Ograve" horiz-adv-x="1479" unicode="Ò" d="M739 -25q-165 0 -283.5 60.5t-195 163t-113 238t-36.5 284.5q0 139 36 267.5t117 242.5q42 58 95 100.5t113.5 69.5t128 40t138.5 13q159 0 277 -57.5t196.5 -156.5t117 -230t38.5 -278q0 -152 -34.5 -289.5t-110.5 -241.5t-195.5 -165t-288.5 -61zM739 1331 q-115 0 -210 -47.5t-158 -144.5q-61 -95 -90 -203.5t-29 -220.5q0 -115 28 -219t91 -201q65 -101 156.5 -149t211.5 -48q119 0 213 48t158 149q62 97 89.5 201t27.5 219q0 112 -28 220.5t-89 203.5q-63 97 -159.5 144.5t-211.5 47.5zM866 1486h-94l-258 295h162z"/>
<glyph glyph-name="Oacute" horiz-adv-x="1479" unicode="Ó" d="M739 -25q-165 0 -283.5 60.5t-195 163t-113 238t-36.5 284.5q0 139 36 267.5t117 242.5q42 58 95 100.5t113.5 69.5t128 40t138.5 13q159 0 277 -57.5t196.5 -156.5t117 -230t38.5 -278q0 -152 -34.5 -289.5t-110.5 -241.5t-195.5 -165t-288.5 -61zM739 1331 q-115 0 -210 -47.5t-158 -144.5q-61 -95 -90 -203.5t-29 -220.5q0 -115 28 -219t91 -201q65 -101 156.5 -149t211.5 -48q119 0 213 48t158 149q62 97 89.5 201t27.5 219q0 112 -28 220.5t-89 203.5q-63 97 -159.5 144.5t-211.5 47.5zM825 1781h162l-258 -295h-94z"/>
<glyph glyph-name="Ocircumflex" horiz-adv-x="1479" unicode="Ô" d="M739 -25q-165 0 -283.5 60.5t-195 163t-113 238t-36.5 284.5q0 139 36 267.5t117 242.5q42 58 95 100.5t113.5 69.5t128 40t138.5 13q159 0 277 -57.5t196.5 -156.5t117 -230t38.5 -278q0 -152 -34.5 -289.5t-110.5 -241.5t-195.5 -165t-288.5 -61zM739 1331 q-115 0 -210 -47.5t-158 -144.5q-61 -95 -90 -203.5t-29 -220.5q0 -115 28 -219t91 -201q65 -101 156.5 -149t211.5 -48q119 0 213 48t158 149q62 97 89.5 201t27.5 219q0 112 -28 220.5t-89 203.5q-63 97 -159.5 144.5t-211.5 47.5zM663 1781h168l191 -295h-94l-181 209 l-180 -209h-94z"/>
<glyph glyph-name="Otilde" horiz-adv-x="1479" unicode="Õ" d="M739 -25q-165 0 -283.5 60.5t-195 163t-113 238t-36.5 284.5q0 139 36 267.5t117 242.5q42 58 95 100.5t113.5 69.5t128 40t138.5 13q159 0 277 -57.5t196.5 -156.5t117 -230t38.5 -278q0 -152 -34.5 -289.5t-110.5 -241.5t-195.5 -165t-288.5 -61zM739 1331 q-115 0 -210 -47.5t-158 -144.5q-61 -95 -90 -203.5t-29 -220.5q0 -115 28 -219t91 -201q65 -101 156.5 -149t211.5 -48q119 0 213 48t158 149q62 97 89.5 201t27.5 219q0 112 -28 220.5t-89 203.5q-63 97 -159.5 144.5t-211.5 47.5zM465 1534q7 31 20 64t32.5 59.5 t47.5 43.5t66 17q31 0 63.5 -7t61.5 -18l20 -7.5t24.5 -8.5t24.5 -7t21 -3q35 0 62 17.5t38 51.5h76q-3 -19 -8.5 -39.5t-14 -40.5t-21 -37t-28.5 -28q-20 -14 -44 -24.5t-49 -10.5q-68 0 -132 27q-20 8 -47 16t-49 8q-39 0 -58 -19.5t-33 -53.5h-73z"/>
<glyph glyph-name="Odieresis" horiz-adv-x="1479" unicode="Ö" d="M739 -25q-165 0 -283.5 60.5t-195 163t-113 238t-36.5 284.5q0 139 36 267.5t117 242.5q42 58 95 100.5t113.5 69.5t128 40t138.5 13q159 0 277 -57.5t196.5 -156.5t117 -230t38.5 -278q0 -152 -34.5 -289.5t-110.5 -241.5t-195.5 -165t-288.5 -61zM739 1331 q-115 0 -210 -47.5t-158 -144.5q-61 -95 -90 -203.5t-29 -220.5q0 -115 28 -219t91 -201q65 -101 156.5 -149t211.5 -48q119 0 213 48t158 149q62 97 89.5 201t27.5 219q0 112 -28 220.5t-89 203.5q-63 97 -159.5 144.5t-211.5 47.5zM848 1724h153v-172h-153v172zM497 1724 h154v-172h-154v172z"/>
<glyph glyph-name="multiply" horiz-adv-x="1229" unicode="×" d="M145 895l101 100l370 -370l367 370l102 -100l-368 -369l368 -370l-102 -103l-367 373l-370 -373l-101 103l371 370z"/>
<glyph glyph-name="Oslash" horiz-adv-x="1479" unicode="Ø" d="M1071 1182q-62 75 -148.5 112t-183.5 37q-115 0 -210 -47.5t-158 -144.5q-61 -96 -90 -203.5t-29 -220.5q0 -97 21 -190t67 -179zM401 254q62 -80 150 -118t188 -38q119 0 213 48t158 149q62 97 89.5 201t27.5 219q0 100 -22.5 195t-69.5 184zM1419 1421l-186 -215 q72 -106 103.5 -225.5t31.5 -247.5q0 -101 -15 -197t-47.5 -180t-82.5 -154t-119.5 -120.5t-160.5 -78.5t-204 -28q-62 0 -121.5 9.5t-115 29.5t-105.5 52.5t-92 78.5l-166 -190l-80 68l181 206q-35 54 -59.5 113.5t-40 122.5t-22.5 128t-7 128q0 139 36 267.5t117 242.5 q42 58 95 100.5t113.5 69.5t128 40t138.5 13q120 0 230.5 -38.5t193.5 -127.5l176 201z"/>
<glyph glyph-name="Ugrave" horiz-adv-x="1366" unicode="Ù" d="M1202 500q0 -91 -19.5 -171t-61.5 -144.5t-107.5 -112t-157.5 -72.5q-42 -11 -84.5 -18t-87.5 -7q-43 0 -83.5 7t-82.5 18q-91 25 -157.5 72t-109.5 111.5t-64 145t-21 171.5v930h141v-930q0 -88 24.5 -161.5t72.5 -127t118 -83.5t162 -30q93 0 163.5 29.5t118 82.5 t71.5 127t24 163v930h141v-930zM811 1486h-94l-258 295h162z"/>
<glyph glyph-name="Uacute" horiz-adv-x="1366" unicode="Ú" d="M1202 500q0 -91 -19.5 -171t-61.5 -144.5t-107.5 -112t-157.5 -72.5q-42 -11 -84.5 -18t-87.5 -7q-43 0 -83.5 7t-82.5 18q-91 25 -157.5 72t-109.5 111.5t-64 145t-21 171.5v930h141v-930q0 -88 24.5 -161.5t72.5 -127t118 -83.5t162 -30q93 0 163.5 29.5t118 82.5 t71.5 127t24 163v930h141v-930zM768 1781h162l-258 -295h-94z"/>
<glyph glyph-name="Ucircumflex" horiz-adv-x="1366" unicode="Û" d="M1202 500q0 -91 -19.5 -171t-61.5 -144.5t-107.5 -112t-157.5 -72.5q-42 -11 -84.5 -18t-87.5 -7q-43 0 -83.5 7t-82.5 18q-91 25 -157.5 72t-109.5 111.5t-64 145t-21 171.5v930h141v-930q0 -88 24.5 -161.5t72.5 -127t118 -83.5t162 -30q93 0 163.5 29.5t118 82.5 t71.5 127t24 163v930h141v-930zM608 1781h168l191 -295h-94l-181 209l-180 -209h-94z"/>
<glyph glyph-name="Udieresis" horiz-adv-x="1366" unicode="Ü" d="M1202 500q0 -91 -19.5 -171t-61.5 -144.5t-107.5 -112t-157.5 -72.5q-42 -11 -84.5 -18t-87.5 -7q-43 0 -83.5 7t-82.5 18q-91 25 -157.5 72t-109.5 111.5t-64 145t-21 171.5v930h141v-930q0 -88 24.5 -161.5t72.5 -127t118 -83.5t162 -30q93 0 163.5 29.5t118 82.5 t71.5 127t24 163v930h141v-930zM791 1724h153v-172h-153v172zM440 1724h154v-172h-154v172z"/>
<glyph glyph-name="Yacute" horiz-adv-x="1251" unicode="Ý" d="M555 606l-530 824h163l437 -699l448 699h154l-531 -824v-606h-141v606zM713 1781h162l-258 -295h-94z"/>
<glyph glyph-name="Thorn" horiz-adv-x="1024" unicode="Þ" d="M176 1430h141v-267h211q100 0 181.5 -24t139.5 -73.5t90 -126t32 -181.5q0 -101 -36 -177t-98 -127t-145 -76.5t-178 -25.5h-197v-352h-141v1430zM317 475h99q39 0 78 2.5t77 7.5q64 9 112.5 27t80.5 50t48.5 80t16.5 116q0 137 -72.5 209.5t-209.5 72.5h-230v-565z"/>
<glyph glyph-name="germandbls" d="M162 1110q0 100 24.5 183t74.5 142.5t127.5 92.5t182.5 33q90 0 161.5 -25.5t122 -74.5t77 -119.5t26.5 -161.5q0 -140 -68.5 -231.5t-205.5 -125.5v-4q169 -20 260.5 -113t91.5 -266q0 -101 -31 -184.5t-89 -143.5t-140 -93t-184 -33q-43 0 -87.5 6t-86.5 18l8 121 q37 -19 77.5 -27t82.5 -8q78 0 136.5 26t96.5 71.5t57 108t19 136.5q0 100 -32.5 161.5t-88.5 95.5t-131 45.5t-160 11.5v110h37q70 0 125 23.5t93 65.5t58.5 99.5t20.5 125.5q0 57 -15.5 107t-46.5 87t-77 58.5t-107 21.5q-23 0 -52 -3t-52 -11q-54 -19 -88.5 -60.5 t-54 -94t-26.5 -110t-7 -106.5v-1065h-129v1110z" unicode="ß"/>
<glyph glyph-name="agrave" horiz-adv-x="1024" unicode="à" d="M750 526h-41q-47 0 -101.5 -2t-108.5 -9.5t-103.5 -23.5t-88 -44t-61.5 -70t-23 -103q0 -48 17 -83.5t46.5 -59t69 -34.5t84.5 -11q64 0 118 18t94 52.5t64 85t29 116.5q2 26 3.5 52.5t1.5 52.5v63zM762 168h-4q-23 -45 -58.5 -81t-80 -61t-94 -38t-99.5 -13 q-35 0 -75.5 6.5t-79.5 20t-73 35t-55 51.5q-12 17 -23 38t-19.5 44t-13.5 46t-5 44q0 60 12.5 114.5t50.5 102.5q47 58 114.5 90.5t144 48t156 18.5t150.5 3h40v66q0 129 -59 192t-189 63q-80 0 -154.5 -22t-142.5 -64v125q74 34 154 53t161 19q93 0 161 -25.5t112 -74 t65 -119.5t21 -161v-470q0 -55 1.5 -109.5t8.5 -109.5h-127v168zM633 1158h-94l-258 295h162z"/>
<glyph glyph-name="aacute" horiz-adv-x="1024" unicode="á" d="M750 526h-41q-47 0 -101.5 -2t-108.5 -9.5t-103.5 -23.5t-88 -44t-61.5 -70t-23 -103q0 -48 17 -83.5t46.5 -59t69 -34.5t84.5 -11q64 0 118 18t94 52.5t64 85t29 116.5q2 26 3.5 52.5t1.5 52.5v63zM762 168h-4q-23 -45 -58.5 -81t-80 -61t-94 -38t-99.5 -13 q-35 0 -75.5 6.5t-79.5 20t-73 35t-55 51.5q-12 17 -23 38t-19.5 44t-13.5 46t-5 44q0 60 12.5 114.5t50.5 102.5q47 58 114.5 90.5t144 48t156 18.5t150.5 3h40v66q0 129 -59 192t-189 63q-80 0 -154.5 -22t-142.5 -64v125q74 34 154 53t161 19q93 0 161 -25.5t112 -74 t65 -119.5t21 -161v-470q0 -55 1.5 -109.5t8.5 -109.5h-127v168zM588 1453h162l-258 -295h-94z"/>
<glyph glyph-name="acircumflex" horiz-adv-x="1024" unicode="â" d="M750 526h-41q-47 0 -101.5 -2t-108.5 -9.5t-103.5 -23.5t-88 -44t-61.5 -70t-23 -103q0 -48 17 -83.5t46.5 -59t69 -34.5t84.5 -11q64 0 118 18t94 52.5t64 85t29 116.5q2 26 3.5 52.5t1.5 52.5v63zM762 168h-4q-23 -45 -58.5 -81t-80 -61t-94 -38t-99.5 -13 q-35 0 -75.5 6.5t-79.5 20t-73 35t-55 51.5q-12 17 -23 38t-19.5 44t-13.5 46t-5 44q0 60 12.5 114.5t50.5 102.5q47 58 114.5 90.5t144 48t156 18.5t150.5 3h40v66q0 129 -59 192t-189 63q-80 0 -154.5 -22t-142.5 -64v125q74 34 154 53t161 19q93 0 161 -25.5t112 -74 t65 -119.5t21 -161v-470q0 -55 1.5 -109.5t8.5 -109.5h-127v168zM430 1453h168l191 -295h-94l-181 209l-180 -209h-94z"/>
<glyph glyph-name="atilde" horiz-adv-x="1024" unicode="ã" d="M750 526h-41q-47 0 -101.5 -2t-108.5 -9.5t-103.5 -23.5t-88 -44t-61.5 -70t-23 -103q0 -48 17 -83.5t46.5 -59t69 -34.5t84.5 -11q64 0 118 18t94 52.5t64 85t29 116.5q2 26 3.5 52.5t1.5 52.5v63zM762 168h-4q-23 -45 -58.5 -81t-80 -61t-94 -38t-99.5 -13 q-35 0 -75.5 6.5t-79.5 20t-73 35t-55 51.5q-12 17 -23 38t-19.5 44t-13.5 46t-5 44q0 60 12.5 114.5t50.5 102.5q47 58 114.5 90.5t144 48t156 18.5t150.5 3h40v66q0 129 -59 192t-189 63q-80 0 -154.5 -22t-142.5 -64v125q74 34 154 53t161 19q93 0 161 -25.5t112 -74 t65 -119.5t21 -161v-470q0 -55 1.5 -109.5t8.5 -109.5h-127v168zM230 1206q7 31 20 64t32.5 59.5t47.5 43.5t66 17q31 0 63.5 -7t61.5 -18l20 -7.5t24.5 -8.5t24.5 -7t21 -3q35 0 62 17.5t38 51.5h76q-3 -19 -8.5 -39.5t-14 -40.5t-21 -37t-28.5 -28q-20 -14 -44 -24.5 t-49 -10.5q-68 0 -132 27q-20 8 -47 16t-49 8q-39 0 -58 -19.5t-33 -53.5h-73z"/>
<glyph glyph-name="adieresis" horiz-adv-x="1024" unicode="ä" d="M750 526h-41q-47 0 -101.5 -2t-108.5 -9.5t-103.5 -23.5t-88 -44t-61.5 -70t-23 -103q0 -48 17 -83.5t46.5 -59t69 -34.5t84.5 -11q64 0 118 18t94 52.5t64 85t29 116.5q2 26 3.5 52.5t1.5 52.5v63zM762 168h-4q-23 -45 -58.5 -81t-80 -61t-94 -38t-99.5 -13 q-35 0 -75.5 6.5t-79.5 20t-73 35t-55 51.5q-12 17 -23 38t-19.5 44t-13.5 46t-5 44q0 60 12.5 114.5t50.5 102.5q47 58 114.5 90.5t144 48t156 18.5t150.5 3h40v66q0 129 -59 192t-189 63q-80 0 -154.5 -22t-142.5 -64v125q74 34 154 53t161 19q93 0 161 -25.5t112 -74 t65 -119.5t21 -161v-470q0 -55 1.5 -109.5t8.5 -109.5h-127v168zM613 1396h153v-172h-153v172zM262 1396h154v-172h-154v172z"/>
<glyph glyph-name="aring" horiz-adv-x="1024" unicode="å" d="M750 526h-41q-47 0 -101.5 -2t-108.5 -9.5t-103.5 -23.5t-88 -44t-61.5 -70t-23 -103q0 -48 17 -83.5t46.5 -59t69 -34.5t84.5 -11q64 0 118 18t94 52.5t64 85t29 116.5q2 26 3.5 52.5t1.5 52.5v63zM762 168h-4q-23 -45 -58.5 -81t-80 -61t-94 -38t-99.5 -13 q-35 0 -75.5 6.5t-79.5 20t-73 35t-55 51.5q-12 17 -23 38t-19.5 44t-13.5 46t-5 44q0 60 12.5 114.5t50.5 102.5q47 58 114.5 90.5t144 48t156 18.5t150.5 3h40v66q0 129 -59 192t-189 63q-80 0 -154.5 -22t-142.5 -64v125q74 34 154 53t161 19q93 0 161 -25.5t112 -74 t65 -119.5t21 -161v-470q0 -55 1.5 -109.5t8.5 -109.5h-127v168zM318 1327q0 42 15 77.5t41.5 61.5t62 41t77.5 15t78 -14.5t62.5 -40.5t41.5 -62t15 -78t-15 -77.5t-41.5 -61.5t-62.5 -40.5t-78 -14.5q-41 0 -76.5 15t-62 41t-42 61.5t-15.5 76.5zM391 1327q0 -25 10 -47 t27 -38.5t39 -26t47 -9.5t47.5 9t39.5 25.5t26.5 38.5t9.5 48q0 54 -34.5 87.5t-88.5 33.5q-53 0 -88 -34t-35 -87z"/>
<glyph glyph-name="ae" horiz-adv-x="1706" unicode="æ" d="M1470 596q0 64 -13 129t-44 116.5t-82 84t-127 32.5q-71 0 -127 -32.5t-94.5 -84.5t-59 -116.5t-20.5 -128.5h567zM762 485h-65q-45 0 -97 -2t-103 -9.5t-98.5 -22t-83.5 -40t-57.5 -64t-21.5 -93.5q0 -42 20 -73.5t51.5 -52.5t70 -31.5t75.5 -10.5q80 0 138 24.5t96 69 t56.5 106.5t18.5 138v61zM1534 33q-72 -27 -148.5 -42.5t-154.5 -15.5q-59 0 -120 10.5t-115 35t-97 65t-65 100.5q-74 -104 -170 -157.5t-226 -53.5q-67 0 -129 15.5t-110 49t-76.5 86.5t-28.5 128q0 111 55 185t158 112q45 17 93 27.5t96 13.5q40 3 80 3.5t80 0.5h106v63 q0 37 -4 78t-16.5 79t-35 70t-59.5 50q-29 15 -64.5 18.5t-67.5 3.5q-80 0 -155 -22t-143 -64v125q71 33 150 52.5t157 19.5q58 0 108 -8.5t92 -30t75.5 -58t58.5 -91.5q27 42 64.5 77t81.5 59.5t92.5 38t99.5 13.5q114 0 193.5 -43t129 -115t71.5 -165.5t22 -194.5v-66 h-709v-53q0 -81 22.5 -145t65.5 -108.5t106 -68.5t144 -24q32 0 71.5 6.5t79.5 17t77.5 24.5t64.5 30v-131z"/>
<glyph glyph-name="ccedilla" horiz-adv-x="909" unicode="ç" d="M842 905q-52 24 -109 38.5t-115 14.5q-98 0 -171.5 -33.5t-122.5 -92.5t-74 -138.5t-25 -171.5q0 -84 25 -162.5t73.5 -139.5t119 -97.5t161.5 -36.5q61 0 120 12t116 35l12 -121q-63 -19 -127 -28t-130 -9h-15l-31 -86q31 7 67 7q31 0 58.5 -8.5t48 -25t32 -41.5 t11.5 -59q0 -44 -22 -71.5t-56 -43t-73.5 -21t-73.5 -5.5q-54 0 -105 15.5t-102 29.5l14 76q38 -23 87.5 -41t94.5 -18q18 0 37 3.5t34.5 11.5t25.5 22.5t10 37.5q0 38 -20 57t-58 19q-22 0 -43.5 -2t-42.5 -6l53 154q-103 11 -186.5 53t-144.5 127q-59 82 -85 172t-26 190 q0 117 35.5 217t102 173.5t162 115t216.5 41.5q27 0 60.5 -2t68 -6.5t66.5 -12.5t57 -20z"/>
<glyph glyph-name="egrave" horiz-adv-x="1024" unicode="è" d="M862 33q-72 -27 -148.5 -42.5t-154.5 -15.5q-126 0 -215.5 41t-147.5 113t-85 171t-27 216q0 67 11 134.5t34.5 129t59 114.5t84.5 92t111.5 61t139.5 22q114 0 193.5 -43t129 -115t71.5 -165.5t22 -194.5v-66h-715q0 -80 21.5 -152t64 -127t107 -87.5t151.5 -32.5 q32 0 71.5 6.5t79.5 17t77.5 24.5t64.5 30v-131zM799 596q0 64 -13 129t-44 116.5t-82.5 84t-127.5 32.5q-71 0 -128 -32t-97 -83.5t-61 -116.5t-21 -130h574zM631 1158h-94l-258 295h162z"/>
<glyph glyph-name="eacute" horiz-adv-x="1024" unicode="é" d="M862 33q-72 -27 -148.5 -42.5t-154.5 -15.5q-126 0 -215.5 41t-147.5 113t-85 171t-27 216q0 67 11 134.5t34.5 129t59 114.5t84.5 92t111.5 61t139.5 22q114 0 193.5 -43t129 -115t71.5 -165.5t22 -194.5v-66h-715q0 -80 21.5 -152t64 -127t107 -87.5t151.5 -32.5 q32 0 71.5 6.5t79.5 17t77.5 24.5t64.5 30v-131zM799 596q0 64 -13 129t-44 116.5t-82.5 84t-127.5 32.5q-71 0 -128 -32t-97 -83.5t-61 -116.5t-21 -130h574zM590 1453h162l-258 -295h-94z"/>
<glyph glyph-name="ecircumflex" horiz-adv-x="1024" unicode="ê" d="M862 33q-72 -27 -148.5 -42.5t-154.5 -15.5q-126 0 -215.5 41t-147.5 113t-85 171t-27 216q0 67 11 134.5t34.5 129t59 114.5t84.5 92t111.5 61t139.5 22q114 0 193.5 -43t129 -115t71.5 -165.5t22 -194.5v-66h-715q0 -80 21.5 -152t64 -127t107 -87.5t151.5 -32.5 q32 0 71.5 6.5t79.5 17t77.5 24.5t64.5 30v-131zM799 596q0 64 -13 129t-44 116.5t-82.5 84t-127.5 32.5q-71 0 -128 -32t-97 -83.5t-61 -116.5t-21 -130h574zM432 1453h168l191 -295h-94l-181 209l-180 -209h-94z"/>
<glyph glyph-name="edieresis" horiz-adv-x="1024" unicode="ë" d="M862 33q-72 -27 -148.5 -42.5t-154.5 -15.5q-126 0 -215.5 41t-147.5 113t-85 171t-27 216q0 67 11 134.5t34.5 129t59 114.5t84.5 92t111.5 61t139.5 22q114 0 193.5 -43t129 -115t71.5 -165.5t22 -194.5v-66h-715q0 -80 21.5 -152t64 -127t107 -87.5t151.5 -32.5 q32 0 71.5 6.5t79.5 17t77.5 24.5t64.5 30v-131zM799 596q0 64 -13 129t-44 116.5t-82.5 84t-127.5 32.5q-71 0 -128 -32t-97 -83.5t-61 -116.5t-21 -130h574zM615 1396h153v-172h-153v172zM264 1396h154v-172h-154v172z"/>
<glyph glyph-name="igrave" horiz-adv-x="455" unicode="ì" d="M344 1158h-94l-258 295h162zM162 1044h129v-1044h-129v1044z"/>
<glyph glyph-name="iacute" horiz-adv-x="455" unicode="í" d="M299 1453h162l-258 -295h-94zM162 1044h129v-1044h-129v1044z"/>
<glyph glyph-name="icircumflex" horiz-adv-x="455" unicode="î" d="M143 1453h168l191 -295h-94l-181 209l-180 -209h-94zM162 1044h129v-1044h-129v1044z"/>
<glyph glyph-name="idieresis" horiz-adv-x="455" unicode="ï" d="M162 1044h129v-1044h-129v1044zM326 1396h153v-172h-153v172zM-25 1396h154v-172h-154v172z"/>
<glyph glyph-name="eth" d="M223 522q0 -80 20 -158.5t62 -140t107.5 -99.5t156.5 -38q93 0 158.5 37.5t107 99t61 140t19.5 159.5q0 83 -19 161.5t-60 139.5t-107 98t-160 37q-93 0 -158.5 -37.5t-107 -99t-61 -140t-19.5 -159.5zM373 1241l186 117q-64 38 -133.5 64t-142.5 40l24 99 q99 -14 193.5 -44.5t179.5 -84.5l219 135l62 -86l-191 -117q79 -74 133.5 -160t88.5 -180t49.5 -195.5t15.5 -207.5q0 -84 -9 -164.5t-30.5 -152t-57.5 -132t-90 -104.5t-128.5 -68.5t-172.5 -24.5q-109 0 -205.5 39.5t-162.5 128.5q-63 85 -91 180t-28 199q0 113 31 212.5 t92 174t152 117.5t212 43q100 0 181 -42t141 -120h4q-28 116 -87 213.5t-153 171.5l-221 -137z" unicode="ð"/>
<glyph glyph-name="ntilde" d="M162 799q0 62 -2 122.5t-6 122.5h125v-186h4q27 57 60 97t74 65.5t91 37t113 11.5q95 0 162.5 -29.5t110.5 -82.5t63 -126.5t20 -162.5v-668h-129v635q0 64 -10.5 123t-38.5 103t-76 70.5t-123 26.5q-84 0 -143 -31.5t-95.5 -84t-53.5 -121t-17 -143.5v-578h-129v799z M291 1206q7 31 20 64t32.5 59.5t47.5 43.5t66 17q31 0 63.5 -7t61.5 -18l20 -7.5t24.5 -8.5t24.5 -7t21 -3q35 0 62 17.5t38 51.5h76q-3 -19 -8.5 -39.5t-14 -40.5t-21 -37t-28.5 -28q-20 -14 -44 -24.5t-49 -10.5q-68 0 -132 27q-20 8 -47 16t-49 8q-39 0 -58 -19.5 t-33 -53.5h-73z" unicode="ñ"/>
<glyph glyph-name="ograve" d="M82 522q0 113 31 212.5t92 174t152 117.5t212 43q123 0 214.5 -42t152.5 -116t91 -174t30 -215q0 -114 -30.5 -214t-91.5 -174t-152.5 -116.5t-213.5 -42.5q-109 0 -205.5 39.5t-162.5 128.5q-63 85 -91 180t-28 199zM223 522q0 -80 20 -158.5t62 -140t107.5 -99.5 t156.5 -38q93 0 158.5 37.5t107 99t61 140t19.5 159.5q0 83 -19 161.5t-60 139.5t-107 98t-160 37q-93 0 -158.5 -37.5t-107 -99t-61 -140t-19.5 -159.5zM694 1158h-94l-258 295h162z" unicode="ò"/>
<glyph glyph-name="oacute" d="M82 522q0 113 31 212.5t92 174t152 117.5t212 43q123 0 214.5 -42t152.5 -116t91 -174t30 -215q0 -114 -30.5 -214t-91.5 -174t-152.5 -116.5t-213.5 -42.5q-109 0 -205.5 39.5t-162.5 128.5q-63 85 -91 180t-28 199zM223 522q0 -80 20 -158.5t62 -140t107.5 -99.5 t156.5 -38q93 0 158.5 37.5t107 99t61 140t19.5 159.5q0 83 -19 161.5t-60 139.5t-107 98t-160 37q-93 0 -158.5 -37.5t-107 -99t-61 -140t-19.5 -159.5zM653 1453h162l-258 -295h-94z" unicode="ó"/>
<glyph glyph-name="ocircumflex" d="M82 522q0 113 31 212.5t92 174t152 117.5t212 43q123 0 214.5 -42t152.5 -116t91 -174t30 -215q0 -114 -30.5 -214t-91.5 -174t-152.5 -116.5t-213.5 -42.5q-109 0 -205.5 39.5t-162.5 128.5q-63 85 -91 180t-28 199zM223 522q0 -80 20 -158.5t62 -140t107.5 -99.5 t156.5 -38q93 0 158.5 37.5t107 99t61 140t19.5 159.5q0 83 -19 161.5t-60 139.5t-107 98t-160 37q-93 0 -158.5 -37.5t-107 -99t-61 -140t-19.5 -159.5zM491 1453h168l191 -295h-94l-181 209l-180 -209h-94z" unicode="ô"/>
<glyph glyph-name="otilde" d="M82 522q0 113 31 212.5t92 174t152 117.5t212 43q123 0 214.5 -42t152.5 -116t91 -174t30 -215q0 -114 -30.5 -214t-91.5 -174t-152.5 -116.5t-213.5 -42.5q-109 0 -205.5 39.5t-162.5 128.5q-63 85 -91 180t-28 199zM223 522q0 -80 20 -158.5t62 -140t107.5 -99.5 t156.5 -38q93 0 158.5 37.5t107 99t61 140t19.5 159.5q0 83 -19 161.5t-60 139.5t-107 98t-160 37q-93 0 -158.5 -37.5t-107 -99t-61 -140t-19.5 -159.5zM293 1206q7 31 20 64t32.5 59.5t47.5 43.5t66 17q31 0 63.5 -7t61.5 -18l20 -7.5t24.5 -8.5t24.5 -7t21 -3 q35 0 62 17.5t38 51.5h76q-3 -19 -8.5 -39.5t-14 -40.5t-21 -37t-28.5 -28q-20 -14 -44 -24.5t-49 -10.5q-68 0 -132 27q-20 8 -47 16t-49 8q-39 0 -58 -19.5t-33 -53.5h-73z" unicode="õ"/>
<glyph glyph-name="odieresis" d="M82 522q0 113 31 212.5t92 174t152 117.5t212 43q123 0 214.5 -42t152.5 -116t91 -174t30 -215q0 -114 -30.5 -214t-91.5 -174t-152.5 -116.5t-213.5 -42.5q-109 0 -205.5 39.5t-162.5 128.5q-63 85 -91 180t-28 199zM223 522q0 -80 20 -158.5t62 -140t107.5 -99.5 t156.5 -38q93 0 158.5 37.5t107 99t61 140t19.5 159.5q0 83 -19 161.5t-60 139.5t-107 98t-160 37q-93 0 -158.5 -37.5t-107 -99t-61 -140t-19.5 -159.5zM676 1396h153v-172h-153v172zM325 1396h154v-172h-154v172z" unicode="ö"/>
<glyph glyph-name="divide" horiz-adv-x="1229" unicode="÷" d="M94 590h1039v-141h-1039v141zM483 922q0 27 10.5 50.5t28.5 41.5t41.5 28.5t50.5 10.5t51 -10.5t41.5 -28t28 -41.5t10.5 -51t-10.5 -50.5t-28.5 -41.5t-41.5 -28.5t-50.5 -10.5q-26 0 -49.5 11t-41.5 29t-29 41.5t-11 49.5zM483 117q0 27 10.5 50.5t28.5 41.5t41.5 28.5 t50.5 10.5t51 -10.5t41.5 -28t28 -41.5t10.5 -51q0 -26 -11 -49.5t-29 -41.5t-41.5 -29t-49.5 -11q-25 0 -48.5 11t-42 29.5t-29.5 42t-11 48.5z"/>
<glyph glyph-name="oslash" d="M805 858q-47 51 -107 75.5t-129 24.5q-93 0 -158.5 -37.5t-107 -99t-61 -140t-19.5 -159.5q0 -69 14.5 -135.5t47.5 -126.5zM340 182q46 -50 104 -73t125 -23q93 0 158.5 37.5t107 99t61 140t19.5 159.5q0 66 -13 131t-44 125zM1100 1057l-150 -172q57 -81 82 -173 t25 -190q0 -114 -30.5 -214t-91.5 -174t-152.5 -116.5t-213.5 -42.5q-86 0 -168 25t-147 84l-143 -166l-72 59l154 177q-58 81 -84.5 172t-26.5 190q0 114 30 215t91 176t152 118.5t214 43.5q43 0 87 -6t85 -19.5t78.5 -35.5t69.5 -54l139 162z" unicode="ø"/>
<glyph glyph-name="ugrave" d="M977 246q0 -62 1.5 -123t6.5 -123h-125v186h-4q-21 -54 -55.5 -93.5t-79 -66t-96.5 -39t-107 -12.5q-93 0 -160.5 29t-111 81.5t-64 125.5t-20.5 160v673h129v-634q0 -62 11.5 -120.5t40 -103.5t76.5 -72.5t120 -27.5q82 0 141 32t96 85t54.5 121.5t17.5 142.5v577h129 v-798zM688 1158h-94l-258 295h162z" unicode="ù"/>
<glyph glyph-name="uacute" d="M977 246q0 -62 1.5 -123t6.5 -123h-125v186h-4q-21 -54 -55.5 -93.5t-79 -66t-96.5 -39t-107 -12.5q-93 0 -160.5 29t-111 81.5t-64 125.5t-20.5 160v673h129v-634q0 -62 11.5 -120.5t40 -103.5t76.5 -72.5t120 -27.5q82 0 141 32t96 85t54.5 121.5t17.5 142.5v577h129 v-798zM647 1453h162l-258 -295h-94z" unicode="ú"/>
<glyph glyph-name="ucircumflex" d="M977 246q0 -62 1.5 -123t6.5 -123h-125v186h-4q-21 -54 -55.5 -93.5t-79 -66t-96.5 -39t-107 -12.5q-93 0 -160.5 29t-111 81.5t-64 125.5t-20.5 160v673h129v-634q0 -62 11.5 -120.5t40 -103.5t76.5 -72.5t120 -27.5q82 0 141 32t96 85t54.5 121.5t17.5 142.5v577h129 v-798zM487 1453h168l191 -295h-94l-181 209l-180 -209h-94z" unicode="û"/>
<glyph glyph-name="udieresis" d="M977 246q0 -62 1.5 -123t6.5 -123h-125v186h-4q-21 -54 -55.5 -93.5t-79 -66t-96.5 -39t-107 -12.5q-93 0 -160.5 29t-111 81.5t-64 125.5t-20.5 160v673h129v-634q0 -62 11.5 -120.5t40 -103.5t76.5 -72.5t120 -27.5q82 0 141 32t96 85t54.5 121.5t17.5 142.5v577h129 v-798zM672 1396h153v-172h-153v172zM321 1396h154v-172h-154v172z" unicode="ü"/>
<glyph glyph-name="yacute" horiz-adv-x="909" unicode="ý" d="M453 174h2l301 870h135l-418 -1200q-16 -47 -38 -97.5t-53.5 -92.5t-75 -69t-101.5 -27q-35 0 -70 4t-69 12l12 111q21 -8 47 -12.5t49 -4.5q37 0 65.5 16t50 43t36.5 60.5t26.5 69.5t20 70t16.5 61l-371 1056h142zM535 1453h162l-258 -295h-94z"/>
<glyph glyph-name="thorn" d="M150 1536h129v-682h4q11 31 30 60.5t44 54.5t53.5 45t58.5 33t68.5 17.5t70.5 4.5q124 0 207 -45t132.5 -120.5t70 -174.5t20.5 -207q0 -102 -23 -200.5t-74.5 -175.5t-133.5 -124t-199 -47q-236 0 -325 215h-4v-620h-129v1966zM897 522q0 38 -2 78t-8 78 q-6 37 -19.5 71.5t-31.5 67.5q-41 75 -102.5 108t-145.5 33q-59 0 -105.5 -19.5t-80.5 -53t-57.5 -78t-38 -94.5t-21 -102t-6.5 -101q0 -46 8 -95.5t24 -96.5t41 -89t59 -74t78 -50.5t99 -18.5q64 0 115 22.5t88.5 61.5t61.5 91t34 112q6 37 8 74.5t2 74.5z" unicode="þ"/>
<glyph glyph-name="dotlessi" horiz-adv-x="455" unicode="ı" d="M162 1044h129v-1044h-129v1044z"/>
<glyph glyph-name="OE" horiz-adv-x="1821" unicode="Œ" d="M1673 1307h-555v-510h527v-123h-527v-551h580v-123h-676q-66 0 -132.5 -3t-132.5 -7q-20 -1 -39.5 -2.5t-39.5 -1.5q-139 0 -250 55.5t-184 175.5q-72 117 -102.5 239.5t-30.5 258.5q0 137 30.5 259.5t102.5 239.5q73 119 184 174.5t250 55.5q87 0 172.5 -7t171.5 -7h651 v-123zM977 1307q-129 12 -260 12q-88 0 -156.5 -23.5t-120.5 -65.5t-87.5 -99.5t-58 -124.5t-32.5 -141t-10 -150q0 -86 13.5 -177t51.5 -169q60 -122 157 -190t236 -68q67 0 133.5 2t133.5 10v1184z"/>
<glyph glyph-name="oe" horiz-adv-x="1821" unicode="œ" d="M1604 596q0 62 -14 126.5t-46 117t-83 85.5t-124 33q-80 0 -137.5 -29.5t-95.5 -79.5t-56 -115.5t-18 -137.5h574zM1030 485q0 -80 21.5 -152t64.5 -127t107.5 -87.5t150.5 -32.5q32 0 71.5 6.5t79.5 17t77.5 24.5t64.5 30v-131q-72 -27 -148.5 -42.5t-154.5 -15.5 q-62 0 -122 11t-112.5 36.5t-95.5 66t-71 99.5q-30 -56 -73.5 -96t-96 -66t-112 -38.5t-120.5 -12.5q-109 0 -205.5 39.5t-162.5 128.5q-63 85 -91 180t-28 199q0 105 28 200.5t91 180.5q35 46 77.5 78t90.5 51.5t101 28t109 8.5q130 0 226.5 -54.5t156.5 -170.5 q57 115 152 170t223 55q112 0 191.5 -43t129 -114.5t72.5 -164t23 -192.5v-70h-715zM215 522q0 -80 20 -158.5t62 -140t107.5 -99.5t156.5 -38q99 0 162.5 37t100 97.5t51 139t14.5 162.5q0 53 -7 112t-25.5 114t-50.5 101t-83 75q-35 20 -78.5 27t-83.5 7 q-93 0 -158.5 -37.5t-107 -99t-61 -140t-19.5 -159.5z"/>
<glyph glyph-name="Scaron" horiz-adv-x="1024" unicode="Š" d="M137 182q69 -48 151 -66t165 -18q70 0 128.5 18t101.5 55t67 91.5t24 128.5q0 60 -34.5 107t-84.5 84t-107 66.5t-102 53.5q-31 17 -60 36l-58 38q-43 28 -81 58.5t-66.5 66.5t-45 80t-16.5 100q0 94 39 164.5t102.5 116.5t144.5 69t166 23q73 0 142.5 -10.5t138.5 -36.5 l-23 -129q-60 30 -126.5 41.5t-133.5 11.5q-59 0 -114.5 -13t-99 -42.5t-69.5 -76.5t-26 -114q0 -45 22 -82t59.5 -69.5t86 -61.5t102 -57.5t108 -59t103 -66t87 -77t61.5 -92.5q14 -32 20 -69t6 -72q0 -93 -35 -174.5t-114 -134.5q-72 -48 -152.5 -71.5t-167.5 -23.5 q-38 0 -80.5 3.5t-85 11t-83 19t-74.5 28.5zM600 1486h-168l-190 295h94l180 -209l181 209h94z"/>
<glyph glyph-name="scaron" horiz-adv-x="797" unicode="š" d="M82 152q63 -34 132 -50t140 -16q42 0 83.5 11.5t74.5 34.5t53.5 58t20.5 82q0 48 -21.5 83.5t-57 63t-80.5 49.5t-92 44t-92 46t-80.5 55.5t-57 73t-21.5 97.5q0 76 27 130t73.5 88.5t108.5 50.5t131 16q136 0 258 -47l-12 -113q-55 23 -113.5 36t-118.5 13 q-45 0 -86 -7.5t-71.5 -27t-49 -53.5t-18.5 -86q0 -30 17.5 -53.5t43 -42t54 -33t51.5 -24.5l92 -45q50 -24 94 -50.5t84 -64.5q42 -40 60 -91t18 -108q0 -76 -31.5 -132t-83 -92.5t-117 -54.5t-133.5 -18q-150 0 -292 50zM483 1158h-168l-190 295h94l180 -209l181 209h94z "/>
<glyph glyph-name="Ydieresis" horiz-adv-x="1251" unicode="Ÿ" d="M555 606l-530 824h163l437 -699l448 699h154l-531 -824v-606h-141v606zM738 1724h153v-172h-153v172zM387 1724h154v-172h-154v172z"/>
<glyph glyph-name="circumflex" horiz-adv-x="455" unicode="ˆ" d="M143 1466h168l191 -295h-94l-181 209l-180 -209h-94z"/>
<glyph glyph-name="caron" horiz-adv-x="455" unicode="ˇ" d="M311 1171h-168l-190 295h94l180 -209l181 209h94z"/>
<glyph glyph-name="ring" horiz-adv-x="455" unicode="˚" d="M31 1327q0 42 15 77.5t41.5 61.5t62 41t77.5 15t78 -14.5t62.5 -40.5t41.5 -62t15 -78t-15 -77.5t-41.5 -61.5t-62.5 -40.5t-78 -14.5q-41 0 -76.5 15t-62 41t-42 61.5t-15.5 76.5zM104 1327q0 -25 10 -47t27 -38.5t39 -26t47 -9.5t47.5 9t39.5 25.5t26.5 38.5t9.5 48 q0 54 -34.5 87.5t-88.5 33.5q-53 0 -88 -34t-35 -87z"/>
<glyph glyph-name="tilde" horiz-adv-x="455" unicode="˜" d="M-55 1219q7 31 20 64t32.5 59.5t47.5 43.5t66 17q31 0 63.5 -7t61.5 -18l20 -7.5t24.5 -8.5t24.5 -7t21 -3q35 0 62 17.5t38 51.5h76q-3 -19 -8.5 -39.5t-14 -40.5t-21 -37t-28.5 -28q-20 -14 -44 -24.5t-49 -10.5q-68 0 -132 27q-20 8 -47 16t-49 8q-39 0 -58 -19.5 t-33 -53.5h-73z"/>
<glyph glyph-name="pi" horiz-adv-x="1167" unicode="π" d="M1120 23q-35 -17 -68 -26t-73 -9q-62 0 -97 19.5t-52.5 52.5t-22 77.5t-4.5 95.5v607h-504v-840h-154v840h-141v141h1108v-141h-156v-613q0 -23 2 -42.5t10 -34t23.5 -23t42.5 -8.5q23 0 44.5 5.5t41.5 14.5v-116z"/>
<glyph glyph-name="uni2002" horiz-adv-x="1024" unicode=" "/>
<glyph glyph-name="uni2003" horiz-adv-x="2048" unicode=" "/>
<glyph glyph-name="uni2009" horiz-adv-x="205" unicode=" "/>
<glyph glyph-name="uni200C" horiz-adv-x="0" unicode="‌" d="M-109 1892l109 -108l106 106l33 -32l-106 -107l106 -106l-33 -33l-106 104l-109 -106l-32 35l106 106l-106 107z"/>
<glyph glyph-name="uni200D" horiz-adv-x="0" unicode="‍" d="M158 1634v95h-314v-95h-47v142h408v-142h-47z"/>
<glyph glyph-name="uni200E" horiz-adv-x="0" unicode="‎" d="M20 1858l33 34l142 -141l-142 -141l-33 35l84 84h-258v47h258z"/>
<glyph glyph-name="endash" horiz-adv-x="1024" unicode="–" d="M0 606h1024v-110h-1024v110z"/>
<glyph glyph-name="emdash" horiz-adv-x="2048" unicode="—" d="M0 606h2048v-110h-2048v110z"/>
<glyph glyph-name="quoteleft" horiz-adv-x="569" unicode="‘" d="M301 983h-154l158 447h117z"/>
<glyph glyph-name="quotesinglbase" horiz-adv-x="569" unicode="‚" d="M268 172h154l-158 -446h-117z"/>
<glyph glyph-name="quotedblleft" d="M406 983h-154l158 447h116zM766 983h-154l158 447h117z" unicode="“"/>
<glyph glyph-name="quotedblright" d="M733 1430h154l-158 -447h-117zM373 1430h153l-157 -447h-117z" unicode="”"/>
<glyph glyph-name="dagger" d="M504 934h-359v110h359v386h129v-386h360v-110h-360v-934h-129v934z" unicode="†"/>
<glyph glyph-name="daggerdbl" d="M145 496h359v438h-359v110h359v386h129v-386h360v-110h-360v-438h360v-111h-360v-385h-129v385h-359v111z" unicode="‡"/>
<glyph glyph-name="ellipsis" horiz-adv-x="2048" unicode="…" d="M260 172h166v-172h-166v172zM942 172h166v-172h-166v172zM1624 172h166v-172h-166v172z"/>
<glyph glyph-name="perthousand" horiz-adv-x="2048" unicode="‰" d="M215 1093q0 -24 1 -47.5t3 -46.5q2 -24 4.5 -44.5t8.5 -39t17 -35.5t30 -34q18 -17 35 -23t42 -6q51 0 79.5 24.5t42.5 62t17 81.5t3 82v37q0 40 -3 83t-17 78t-42.5 58t-79.5 23q-50 0 -78 -25.5t-42 -64t-17.5 -82.5t-3.5 -81zM1550 360q0 -32 0.5 -66t6.5 -66.5 t19 -62t38 -52.5q18 -17 35.5 -23t42.5 -6q51 0 79.5 24.5t42 62t16.5 81.5t3 82v44q0 40 -3.5 81.5t-17.5 75.5t-42 55.5t-78 21.5t-78.5 -25t-42.5 -63t-17.5 -82t-3.5 -82zM907 360q0 -32 0.5 -66t6.5 -66.5t19 -62t38 -52.5q18 -17 35.5 -23t42.5 -6q51 0 79.5 24.5 t42 62t16.5 81.5t3 82v44q0 40 -3.5 81.5t-17.5 75.5t-42 55.5t-78 21.5t-78.5 -25t-42.5 -63t-17.5 -82t-3.5 -82zM1067 1475h119l-846 -1520h-119zM86 1081q0 70 11 136t41 116t82.5 80.5t135.5 30.5q85 0 138 -29.5t82.5 -80t40 -116t10.5 -137.5q0 -70 -11.5 -135 t-41.5 -115.5t-83 -81t-135 -30.5q-59 0 -102 15t-73.5 43.5t-49.5 71t-31 97.5q-14 68 -14 135zM778 348q0 34 3.5 67t9.5 66q10 55 29.5 98t50.5 72.5t75 44.5t103 15q85 0 137.5 -30t82 -80.5t40 -116t10.5 -136.5t-11 -136t-40.5 -115.5t-82 -80.5t-136.5 -30 q-33 0 -66 6.5t-62 20.5t-53.5 36t-40.5 53q-14 27 -22 58t-14 61q-6 32 -9.5 63.5t-3.5 63.5zM1421 348q0 34 3.5 67t9.5 66q10 55 29.5 98t50.5 72.5t75 44.5t103 15q85 0 137.5 -30t82 -80.5t40 -116t10.5 -136.5t-10.5 -136t-40.5 -115.5t-82.5 -80.5t-136.5 -30 q-33 0 -66 6.5t-62 20.5t-53.5 36t-40.5 53q-14 27 -22 58t-14 61q-6 32 -9.5 63.5t-3.5 63.5z"/>
<glyph glyph-name="guilsinglleft" horiz-adv-x="569" unicode="‹" d="M215 551l272 -420h-120l-287 420l287 420h120z"/>
<glyph glyph-name="guilsinglright" horiz-adv-x="569" unicode="›" d="M354 551l-272 420h121l286 -420l-286 -420h-121z"/>
<glyph glyph-name="fraction" horiz-adv-x="342" unicode="⁄" d="M535 1475h116l-846 -1520h-116z"/>
<glyph glyph-name="Euro" d="M1133 1274q-61 35 -129.5 47t-137.5 12q-101 0 -184 -31.5t-147 -88t-108.5 -135t-66.5 -173.5h699l-23 -98h-694q-3 -23 -4 -45.5t-1 -45.5t1.5 -46.5t3.5 -46.5h657l-20 -99h-619q22 -95 66 -173.5t107.5 -134.5t146.5 -87t184 -31q69 0 137.5 12.5t131.5 43.5l12 -131 q-65 -29 -138 -38.5t-143 -9.5q-131 0 -240 38t-192 109.5t-139 173t-80 228.5h-184l22 99h150q-2 23 -3 46.5t-1 46.5t1 45.5t3 45.5h-172l22 98h164q25 124 82 225.5t141 173.5t192.5 111t237.5 39q74 0 148 -10.5t143 -40.5z" unicode="€"/>
<glyph glyph-name="trademark" horiz-adv-x="2028" unicode="™" d="M399 1331h-268v99h666v-99h-269v-749h-129v749zM979 1430h209l250 -654l250 654h208v-848h-129v737h-4l-282 -737h-88l-281 737h-4v-737h-129v848z"/>
<glyph glyph-name="partialdiff" horiz-adv-x="1047" unicode="∂" d="M961 741q0 -79 -7 -166t-26.5 -172.5t-53 -163t-86.5 -136t-127.5 -93.5t-175.5 -35q-97 0 -174.5 37.5t-131.5 101t-82.5 147t-28.5 175.5q0 91 28 171t80.5 139t128 93.5t170.5 34.5q96 0 181.5 -41.5t148.5 -113.5q0 23 1 46t1 46q0 54 -7.5 115t-24.5 120.5t-44 114 t-66.5 96.5t-92 66.5t-119.5 24.5q-69 0 -125 -27.5t-109 -69.5l-86 103q69 60 145 91.5t168 31.5q100 0 177 -31.5t134.5 -86t96 -127t62.5 -154t34.5 -168.5t10.5 -169zM797 573q-27 36 -60 67.5t-72 55.5t-82 38t-89 14q-68 0 -119 -26.5t-86 -70.5t-52.5 -101.5 t-17.5 -119.5q0 -60 17 -119.5t50.5 -107t84 -76.5t118.5 -29q57 0 102 22.5t79 60t58 86.5t39.5 101.5t22.5 105.5t7 99z"/>
<glyph glyph-name="product" horiz-adv-x="1473" unicode="∏" d="M1171 -438v1900h-872v-1900h-160v2048h1192v-2048h-160z"/>
<glyph glyph-name="summation" horiz-adv-x="1260" unicode="∑" d="M51 -438v131l660 901l-631 885v131h1102v-148h-895l616 -868l-653 -885h956v-147h-1155z"/>
<glyph glyph-name="minus" horiz-adv-x="1229" unicode="−" d="M94 590h1039v-141h-1039v141z"/>
<glyph glyph-name="radical" horiz-adv-x="1032" unicode="√" d="M621 -438h-154l-332 684l-96 -45l-57 123l229 106l309 -649l377 1829h156z"/>
<glyph glyph-name="infinity" horiz-adv-x="1554" unicode="∞" d="M1468 522q0 -68 -20.5 -126.5t-59.5 -101.5t-95 -68t-126 -25q-59 0 -112.5 20t-102.5 51.5t-92.5 71.5t-81.5 80q-43 -39 -86 -78.5t-90 -71t-100 -51.5t-115 -20q-69 0 -124.5 23.5t-94.5 65.5t-60.5 99.5t-21.5 124.5q0 66 20.5 124t59 101.5t93.5 69t124 25.5 q62 0 116.5 -21t102.5 -55t91.5 -75.5t84.5 -82.5l82.5 82.5t89.5 77t100 56.5t115 22q69 0 125 -24.5t95.5 -67.5t61 -101t21.5 -125zM1335 516q0 39 -11 72.5t-32 58.5t-52.5 39t-72.5 14q-43 0 -84 -19t-79.5 -47t-73 -60.5t-64.5 -59.5q32 -30 66.5 -61t72.5 -56t80 -41 t89 -16q39 0 69 13.5t50.5 37.5t31 56t10.5 69zM690 514q-28 27 -64 59t-76.5 60t-83 46.5t-83.5 18.5q-39 0 -69.5 -14.5t-51.5 -39.5t-32 -58t-11 -70q0 -39 11.5 -71.5t33.5 -55.5t53.5 -36t71.5 -13q41 0 83 16.5t81.5 42t74.5 56.5t62 59z"/>
<glyph glyph-name="approxequal" horiz-adv-x="1214" unicode="≈" d="M1149 850q-6 -57 -24 -111t-50 -96t-79.5 -67t-112.5 -25q-45 0 -94.5 11t-99 26.5t-98 34t-91.5 33.5q-39 14 -84.5 27t-87.5 13q-33 0 -60 -13.5t-46.5 -35t-32 -50t-17.5 -58.5h-104q6 56 24 110.5t50 97t79 69t111 26.5q48 0 95.5 -11t94.5 -27t93.5 -35t92.5 -35 t92.5 -27t92.5 -11q35 0 61 12.5t44.5 33.5t30 49t18.5 59h102zM1147 479q-6 -57 -23.5 -111t-49.5 -95t-79 -66t-112 -25q-46 0 -95.5 11t-99.5 27t-98.5 34.5t-91.5 33.5q-18 7 -40 14.5t-44.5 13.5t-45 10t-42.5 4q-33 0 -59.5 -14t-46.5 -36.5t-32 -51t-16 -58.5h-106 q8 56 25.5 110.5t49 97t78 69t111.5 26.5q72 0 143 -22.5t141 -50t139.5 -50t137.5 -22.5q34 0 60 12t45 32.5t30.5 48t17.5 58.5h103z"/>
<glyph glyph-name="notequal" horiz-adv-x="1214" unicode="≠" d="M539 233l-156 -299l-127 66l121 233h-289v148h365l137 260h-502v145h580l157 304l127 -66l-125 -238h299v-145h-374l-138 -260h512v-148h-587z"/>
<glyph glyph-name="lessequal" horiz-adv-x="1214" unicode="≤" d="M88 545v153l1038 383v-159l-835 -299l835 -297v-158zM88 -61v147h1038v-147h-1038z"/>
<glyph glyph-name="greaterequal" horiz-adv-x="1214" unicode="≥" d="M88 168v158l836 297l-836 299v159l1038 -383v-153zM88 -61v147h1038v-147h-1038z"/>
<glyph glyph-name="lozenge" horiz-adv-x="1214" unicode="◊" d="M680 -72h-148l-350 801l350 801h148l352 -801zM606 1374l-268 -645l268 -645l271 645z"/>
</font>
</defs>
</svg>
